  0
SECTION
  2
HEADER
  9
$ACADVER
  1
AC1009
  9
$INSBASE
 10
0.0
 20
0.0
 30
0.0
  9
$EXTMIN
 10
-0.3707602857284655
 20
-0.2660434108111076
 30
-0.0015258207003583
  9
$EXTMAX
 10
12150.3708168635694165
 20
8660.1077023576435749
 30
0.0000000349246037
  9
$LIMMIN
 10
0.0
 20
0.0
  9
$LIMMAX
 10
420.0
 20
297.0
  9
$ORTHOMODE
 70
     0
  9
$REGENMODE
 70
     1
  9
$FILLMODE
 70
     1
  9
$QTEXTMODE
 70
     0
  9
$MIRRTEXT
 70
     0
  9
$DRAGMODE
 70
     2
  9
$LTSCALE
 40
1.0
  9
$OSMODE
 70
   175
  9
$ATTMODE
 70
     1
  9
$TEXTSIZE
 40
2.5
  9
$TRACEWID
 40
1.0
  9
$TEXTSTYLE
  7
MS_ゴシック
  9
$CLAYER
  8
0
  9
$CELTYPE
  6
BYLAYER
  9
$CECOLOR
 62
   256
  9
$DIMSCALE
 40
1.0
  9
$DIMASZ
 40
0.18
  9
$DIMEXO
 40
0.0625
  9
$DIMDLI
 40
0.38
  9
$DIMRND
 40
0.0
  9
$DIMDLE
 40
0.0
  9
$DIMEXE
 40
0.18
  9
$DIMTP
 40
0.0
  9
$DIMTM
 40
0.0
  9
$DIMTXT
 40
0.18
  9
$DIMCEN
 40
0.09
  9
$DIMTSZ
 40
0.0
  9
$DIMTOL
 70
     0
  9
$DIMLIM
 70
     0
  9
$DIMTIH
 70
     1
  9
$DIMTOH
 70
     1
  9
$DIMSE1
 70
     0
  9
$DIMSE2
 70
     0
  9
$DIMTAD
 70
     0
  9
$DIMZIN
 70
     0
  9
$DIMBLK
  1

  9
$DIMASO
 70
     1
  9
$DIMSHO
 70
     1
  9
$DIMPOST
  1

  9
$DIMAPOST
  1

  9
$DIMALT
 70
     0
  9
$DIMALTD
 70
     2
  9
$DIMALTF
 40
25.3999999999999986
  9
$DIMLFAC
 40
1.0
  9
$DIMTOFL
 70
     0
  9
$DIMTVP
 40
0.0
  9
$DIMTIX
 70
     0
  9
$DIMSOXD
 70
     0
  9
$DIMSAH
 70
     0
  9
$DIMBLK1
  1

  9
$DIMBLK2
  1

  9
$DIMSTYLE
  2
STANDARD
  9
$DIMCLRD
 70
     0
  9
$DIMCLRE
 70
     0
  9
$DIMCLRT
 70
     0
  9
$DIMTFAC
 40
1.0
  9
$DIMGAP
 40
0.09
  9
$LUNITS
 70
     2
  9
$LUPREC
 70
     4
  9
$SKETCHINC
 40
1.0
  9
$FILLETRAD
 40
0.0
  9
$AUNITS
 70
     0
  9
$AUPREC
 70
     0
  9
$MENU
  1
.
  9
$ELEVATION
 40
0.0
  9
$PELEVATION
 40
0.0
  9
$THICKNESS
 40
0.0
  9
$LIMCHECK
 70
     0
  9
$BLIPMODE
 70
     0
  9
$CHAMFERA
 40
0.0
  9
$CHAMFERB
 40
0.0
  9
$SKPOLY
 70
     0
  9
$TDCREATE
 40
2456891.5740625001490116
  9
$TDUPDATE
 40
2459829.616655093152076
  9
$TDINDWG
 40
2.6307225694
  9
$TDUSRTIMER
 40
2.6307225231000002
  9
$USRTIMER
 70
     1
  9
$ANGBASE
 50
0.0
  9
$ANGDIR
 70
     0
  9
$PDMODE
 70
     0
  9
$PDSIZE
 40
0.0
  9
$PLINEWID
 40
0.0
  9
$COORDS
 70
     1
  9
$SPLFRAME
 70
     0
  9
$SPLINETYPE
 70
     6
  9
$SPLINESEGS
 70
     8
  9
$ATTDIA
 70
     1
  9
$ATTREQ
 70
     1
  9
$HANDLING
 70
     1
  9
$HANDSEED
  5
F3C9
  9
$SURFTAB1
 70
     6
  9
$SURFTAB2
 70
     6
  9
$SURFTYPE
 70
     6
  9
$SURFU
 70
     6
  9
$SURFV
 70
     6
  9
$UCSNAME
  2

  9
$UCSORG
 10
0.0
 20
0.0
 30
0.0
  9
$UCSXDIR
 10
1.0
 20
0.0
 30
0.0
  9
$UCSYDIR
 10
0.0
 20
1.0
 30
0.0
  9
$PUCSNAME
  2

  9
$PUCSORG
 10
0.0
 20
0.0
 30
0.0
  9
$PUCSXDIR
 10
1.0
 20
0.0
 30
0.0
  9
$PUCSYDIR
 10
0.0
 20
1.0
 30
0.0
  9
$USERI1
 70
     0
  9
$USERI2
 70
     0
  9
$USERI3
 70
     0
  9
$USERI4
 70
     0
  9
$USERI5
 70
     0
  9
$USERR1
 40
0.0
  9
$USERR2
 40
0.0
  9
$USERR3
 40
0.0
  9
$USERR4
 40
0.0
  9
$USERR5
 40
0.0
  9
$WORLDVIEW
 70
     1
  9
$SHADEDGE
 70
     3
  9
$SHADEDIF
 70
    70
  9
$TILEMODE
 70
     1
  9
$MAXACTVP
 70
    64
  9
$PLIMCHECK
 70
     0
  9
$PEXTMIN
 10
-7.5199094777448172
 20
-5.014048005871472
 30
-0.0000000000000058
  9
$PEXTMAX
 10
427.5199135306563107
 20
302.0140569678737847
 30
0.0000000000000104
  9
$PLIMMIN
 10
0.0
 20
0.0
  9
$PLIMMAX
 10
420.0
 20
297.0
  9
$UNITMODE
 70
     0
  9
$VISRETAIN
 70
     1
  9
$PLINEGEN
 70
     0
  9
$PSLTSCALE
 70
     1
  0
ENDSEC
  0
SECTION
  2
TABLES
  0
TABLE
  2
VPORT
 70
     1
  0
VPORT
  2
*ACTIVE
 70
     0
 10
0.0
 20
0.0
 11
1.0
 21
1.0
 12
6075.000028288919566
 22
4329.9208294734162337
 13
0.0
 23
0.0
 14
10.0
 24
10.0
 15
10.0
 25
10.0
 16
0.0
 26
0.0
 36
1.0
 17
0.0
 27
0.0
 37
0.0
 40
8717.5379289088414225
 41
1.9185022026431711
 42
50.0
 43
0.0
 44
0.0
 50
0.0
 51
0.0
 71
     0
 72
  1000
 73
     1
 74
     3
 75
     0
 76
     0
 77
     0
 78
     0
  0
ENDTAB
  0
TABLE
  2
LTYPE
 70
     3
  0
LTYPE
  2
CONTINUOUS
 70
     0
  3
Solid line
 72
    65
 73
     0
 40
0.0
  0
LTYPE
  2
PHANTOM
 70
     0
  3
Phantom ______  __  __  ______  __  __  ______
 72
    65
 73
     6
 40
63.5
 49
31.75
 49
-6.3499999999999979
 49
6.3499999999999979
 49
-6.3499999999999979
 49
6.3499999999999979
 49
-6.3499999999999979
  0
LTYPE
  2
HIDDEN
 70
     0
  3
Hidden __ __ __ __ __ __ __ __ __ __ __ __ __ _
 72
    65
 73
     2
 40
9.5249999999999986
 49
6.3499999999999979
 49
-3.174999999999998
  0
ENDTAB
  0
TABLE
  2
LAYER
 70
     6
  0
LAYER
  2
0
 70
     0
 62
     7
  6
CONTINUOUS
  0
LAYER
  2
DEFPOINTS
 70
     0
 62
     8
  6
CONTINUOUS
  0
LAYER
  2
011_図枠
 70
     0
 62
     7
  6
CONTINUOUS
  0
LAYER
  2
041_図枠文字
 70
     0
 62
     7
  6
CONTINUOUS
  0
LAYER
  2
HOJO
 70
     4
 62
     8
  6
CONTINUOUS
  0
LAYER
  2
0___30
 70
     0
 62
     7
  6
CONTINUOUS
  0
ENDTAB
  0
TABLE
  2
STYLE
 70
     5
  0
STYLE
  2
STANDARD
 70
     0
 40
0.0
 41
1.0
 50
0.0
 71
     0
 42
2.5
  3
txt.shx
  4
bigfont.shx
  0
STYLE
  2
ANNOTATIVE
 70
     0
 40
0.0
 41
1.0
 50
0.0
 71
     0
 42
0.2
  3
txt
  4

  0
STYLE
  2
MS_ゴシック
 70
     0
 40
0.0
 41
1.0
 50
0.0
 71
     0
 42
2.5
  3
txt.shx
  4
bigfont.shx
  0
STYLE
  2
ARIAL_BLACK__ITALIC_
 70
     0
 40
0.0
 41
1.0
 50
0.0
 71
     0
 42
0.0
  3
txt.shx
  4
Arial Black
  0
STYLE
  2
_MS_ゴシック
 70
     0
 40
0.0
 41
1.0
 50
0.0
 71
     0
 42
2.5
  3
txt.shx
  4
bigfont.shx
  0
ENDTAB
  0
TABLE
  2
VIEW
 70
     1
  0
VIEW
  2
OLE1
 70
     0
 40
130.1449313946532129
 10
122.8109113658942988
 20
36.0236153637620191
 41
285.1788934647802876
 11
0.0
 21
0.0
 31
1.0
 12
0.0
 22
0.0
 32
0.0
 42
50.0
 43
0.0
 44
0.0
 50
0.0
 71
     0
  0
ENDTAB
  0
TABLE
  2
UCS
 70
     0
  0
ENDTAB
  0
TABLE
  2
APPID
 70
    29
  0
APPID
  2
ACAD
 70
     0
  0
APPID
  2
ACADANNOTATIVE
 70
     0
  0
APPID
  2
ACAD_PSEXT
 70
     0
  0
APPID
  2
ACADANNOPO
 70
     0
  0
APPID
  2
ACAD_DSTYLE_DIMJAG
 70
     0
  0
APPID
  2
ACAD_DSTYLE_DIMTALN
 70
     0
  0
APPID
  2
ACAD_MLEADERVER
 70
     0
  0
APPID
  2
ACAD_DSTYLE_DIMBREAK
 70
     0
  0
APPID
  2
ACAECLAYERSTANDARD
 70
     0
  0
APPID
  2
ACCMTRANSPARENCY
 70
     0
  0
APPID
  2
ACAD_EXEMPT_FROM_CAD_STANDARDS
 70
     0
  0
APPID
  2
ACDBDYNAMICBLOCKGUID
 70
     0
  0
APPID
  2
GRADIENTCOLOR1ACI
 70
     0
  0
APPID
  2
GRADIENTCOLOR2ACI
 70
     0
  0
APPID
  2
ACAUTHENVIRON
 70
     0
  0
APPID
  2
ACDBDYNAMICBLOCKTRUENAME
 70
     0
  0
APPID
  2
ACAD_NAV_VCDISPLAY
 70
     0
  0
APPID
  2
ACAD_DSTYLE_DIMRADIAL_EXTENSION
 70
     0
  0
APPID
  2
ACADANNOAV
 70
     0
  0
APPID
  2
HATCHBACKGROUNDCOLOR
 70
     0
  0
APPID
  2
ACAD_TC
 70
     0
  0
APPID
  2
ACXREFLAYERPROPERTYOVERRIDE
 70
     0
  0
APPID
  2
ACDBBLOCKREPETAG
 70
     0
  0
APPID
  2
ACDBBLOCKREPBTAG
 70
     0
  0
APPID
  2
ACLAYERTOOLS
 70
     0
  0
APPID
  2
AECGUIBASE
 70
     0
  0
APPID
  2
ACADANNOMONITORALERTICONDI
 70
     0
  0
APPID
  2
ACADANNOTATIVEDECOMPOSITION
 70
     0
  0
APPID
  2
CONTENTBLOCKICON
 70
     0
  0
ENDTAB
  0
TABLE
  2
DIMSTYLE
 70
     5
  0
DIMSTYLE
  2
STANDARD
 70
     0
  3

  4

  5

  6

  7

 40
1.0
 41
0.18
 42
0.0625
 43
0.38
 44
0.18
 45
0.0
 46
0.0
 47
0.0
 48
0.0
140
0.18
141
0.09
142
0.0
143
25.3999999999999986
144
1.0
145
0.0
146
1.0
147
0.09
 71
     0
 72
     0
 73
     1
 74
     1
 75
     0
 76
     0
 77
     0
 78
     0
170
     0
171
     2
172
     0
173
     0
174
     0
175
     0
176
     0
177
     0
178
     0
  0
DIMSTYLE
  2
ANNOTATIVE
 70
     0
  3

  4

  5

  6

  7

 40
1.0
 41
0.18
 42
0.0625
 43
0.38
 44
0.18
 45
0.0
 46
0.0
 47
0.0
 48
0.0
140
0.18
141
0.09
142
0.0
143
25.3999999999999986
144
1.0
145
0.0
146
1.0
147
0.09
 71
     0
 72
     0
 73
     1
 74
     1
 75
     0
 76
     0
 77
     0
 78
     0
170
     0
171
     2
172
     0
173
     0
174
     0
175
     0
176
     0
177
     0
178
     0
  0
DIMSTYLE
  2
COS-1
 70
     0
  3

  4

  5

  6

  7

 40
1.0
 41
2.0
 42
2.5
 43
5.0
 44
1.0
 45
0.0
 46
0.0
 47
0.0
 48
0.0
140
2.5
141
2.5
142
0.0
143
0.03937007874016
144
1.0
145
0.0
146
1.0
147
0.5
 71
     0
 72
     0
 73
     0
 74
     0
 75
     0
 76
     0
 77
     1
 78
     8
170
     0
171
     3
172
     1
173
     0
174
     0
175
     0
176
     0
177
     0
178
   256
  0
DIMSTYLE
  2
COS-2
 70
     0
  3

  4

  5

  6

  7

 40
1.0
 41
2.0
 42
2.5
 43
5.0
 44
1.0
 45
0.0
 46
0.0
 47
0.0
 48
0.0
140
2.5
141
2.5
142
0.0
143
0.03937007874016
144
1.0
145
0.0
146
1.0
147
0.5
 71
     0
 72
     0
 73
     0
 74
     0
 75
     0
 76
     0
 77
     1
 78
     8
170
     0
171
     3
172
     1
173
     0
174
     0
175
     0
176
     0
177
     0
178
   256
  0
DIMSTYLE
  2
COS-3
 70
     0
  3

  4

  5

  6

  7

 40
1.0
 41
2.0
 42
2.5
 43
5.0
 44
1.0
 45
0.0
 46
0.0
 47
0.0
 48
0.0
140
2.5
141
2.5
142
0.0
143
0.03937007874016
144
1.0
145
0.0
146
1.0
147
-0.5
 71
     0
 72
     0
 73
     0
 74
     0
 75
     0
 76
     0
 77
     1
 78
     8
170
     0
171
     3
172
     1
173
     0
174
     0
175
     0
176
     0
177
     0
178
   256
  0
ENDTAB
  0
ENDSEC
  0
SECTION
  2
BLOCKS
  0
BLOCK
  8
0
  2
$MODEL_SPACE
 70
     0
 10
0.0
 20
0.0
 30
0.0
  3
$MODEL_SPACE
  1

  0
ENDBLK
  5
EF09
  8
0
  0
BLOCK
 67
     1
  8
0
  2
$PAPER_SPACE
 70
     0
 10
0.0
 20
0.0
 30
0.0
  3
$PAPER_SPACE
  1

  0
ENDBLK
  5
EF05
 67
     1
  8
0
  0
BLOCK
  8
0
  2
図枠
 70
     0
 10
0.0
 20
0.0
 30
0.0
  3
図枠
  1

  0
POLYLINE
  5
1FB3
  8
0
 66
     1
 10
0.0
 20
0.0
 30
0.0
 70
     1
  0
VERTEX
  5
F012
  8
0
 10
-202.5
 20
-136.0
 30
0.0
  0
VERTEX
  5
F013
  8
0
 10
202.4999999999998863
 20
-136.0
 30
0.0
  0
VERTEX
  5
F014
  8
0
 10
202.4999999999998863
 20
136.0
 30
0.0
  0
VERTEX
  5
F015
  8
0
 10
-202.5
 20
136.0
 30
0.0
  0
SEQEND
  5
F016
  8
0
  0
LINE
  5
1FB4
  8
0
 10
-202.5
 20
0.0
 30
0.0
 11
202.4999999999998863
 21
0.0
 31
0.0
  0
LINE
  5
1FB5
  8
0
 10
0.0
 20
136.0
 30
0.0
 11
0.0
 21
-136.0
 31
0.0
  0
ENDBLK
  5
13A7
  8
0
  0
BLOCK
  8
0
  2
A3枠
 70
     0
 10
0.0
 20
0.0
 30
0.0
  3
A3枠
  1

  0
POLYLINE
  5
E8DA
  8
HOJO
 66
     1
 10
0.0
 20
0.0
 30
0.0
 70
     1
  0
VERTEX
  5
F314
  8
HOJO
 10
0.0
 20
0.0
 30
0.0
  0
VERTEX
  5
F315
  8
HOJO
 10
420.0
 20
0.0
 30
0.0
  0
VERTEX
  5
F316
  8
HOJO
 10
420.0
 20
297.0
 30
0.0
  0
VERTEX
  5
F317
  8
HOJO
 10
0.0
 20
297.0
 30
0.0
  0
SEQEND
  5
F318
  8
HOJO
  0
LINE
  5
E8DB
  8
0
 10
7.4999999999998863
 20
292.0
 30
0.0
 11
412.4999999999998863
 21
292.0
 31
0.0
  0
LINE
  5
E8DC
  8
0
 10
7.2499999999998863
 20
292.25
 30
0.0
 11
412.7499999999998863
 21
292.25
 31
0.0
  0
LINE
  5
E8DD
  8
0
 10
6.9999999999998863
 20
292.5
 30
0.0
 11
412.9999999999998863
 21
292.5
 31
0.0
  0
LINE
  5
E8DE
  8
0
 10
412.5
 20
5.0
 30
0.0
 11
7.5
 21
5.0
 31
0.0
  0
LINE
  5
E8DF
  8
0
 10
412.75
 20
4.75
 30
0.0
 11
7.25
 21
4.75
 31
0.0
  0
LINE
  5
E8E0
  8
0
 10
413.0
 20
4.5
 30
0.0
 11
7.0
 21
4.5
 31
0.0
  0
LINE
  5
E8E1
  8
0
 10
412.5
 20
20.0
 30
0.0
 11
7.5
 21
20.0
 31
0.0
  0
LINE
  5
E8E2
  8
0
 10
7.5
 20
5.0
 30
0.0
 11
7.4999999999998863
 21
292.0
 31
0.0
  0
LINE
  5
E8E3
  8
0
 10
7.25
 20
4.75
 30
0.0
 11
7.2499999999998863
 21
292.25
 31
0.0
  0
LINE
  5
E8E4
  8
0
 10
7.0
 20
4.5
 30
0.0
 11
6.9999999999998863
 21
292.5
 31
0.0
  0
LINE
  5
E8E5
  8
0
 10
412.4999999999998863
 20
292.0
 30
0.0
 11
412.5
 21
5.0
 31
0.0
  0
LINE
  5
E8E6
  8
0
 10
412.7499999999998863
 20
292.25
 30
0.0
 11
412.75
 21
4.75
 31
0.0
  0
LINE
  5
E8E7
  8
0
 10
412.9999999999998863
 20
292.5
 30
0.0
 11
413.0
 21
4.5
 31
0.0
  0
LINE
  5
E8E8
  8
0
 10
217.5
 20
12.5
 30
0.0
 11
362.5
 21
12.5
 31
0.0
  0
TEXT
  5
E8E9
  8
0
 10
218.0
 20
9.5
 30
0.0
 40
2.5
  1
DATE
  7
MS_ゴシック
 11
218.0
 21
12.0
 31
0.0
 73
     3
  0
TEXT
  5
E8EA
  8
0
 10
258.0
 20
17.0
 30
0.0
 40
2.5
  1
TITLE
  7
MS_ゴシック
 11
258.0
 21
19.5
 31
0.0
 73
     3
  0
TEXT
  5
E8EB
  8
0
 10
217.9999999999998863
 20
17.0
 30
0.0
 40
2.5
  1
SCALE
  7
MS_ゴシック
 11
217.9999999999998863
 21
19.5
 31
0.0
 73
     3
  0
LINE
  5
E8EC
  8
0
 10
240.1516504294494894
 20
18.9016504294495498
 30
0.0
 11
234.8483495705503969
 21
13.5983495705504396
 31
0.0
  0
TEXT
  5
E8ED
  8
0
 10
233.2483495705504026
 20
16.6499999999999986
 30
0.0
 40
3.0
  1
１
  7
MS_ゴシック
 72
     2
 11
234.8483495705503969
 21
16.25
 31
0.0
 73
     1
  0
TEXT
  5
E8EE
  8
0
 10
363.0
 20
17.0
 30
0.0
 40
2.5
  1
NO,
  7
MS_ゴシック
 11
363.0
 21
19.5
 31
0.0
 73
     3
  0
TEXT
  5
E8F5
  8
0
 10
8.9589017735333059
 20
8.75
 30
0.0
 40
7.5
  1
COSMONDE CORP.
  7
ARIAL_BLACK__ITALIC_
 72
     4
 11
62.4999999999998934
 21
12.5
 31
0.0
  0
LINE
  5
E8F6
  8
0
 10
7.5
 20
148.5
 30
0.0
 11
-7.5
 21
148.5
 31
0.0
  0
LINE
  5
E8F7
  8
0
 10
210.0
 20
5.0
 30
0.0
 11
210.0
 21
-5.0
 31
0.0
  0
LINE
  5
E8F8
  8
HOJO
 10
267.4999999999998863
 20
20.0
 30
0.0
 11
362.5
 21
12.5
 31
0.0
  0
LINE
  5
E8F9
  8
0
 10
117.4999999999999005
 20
5.0
 30
0.0
 11
117.4999999999999005
 21
20.0
 31
0.0
  0
LINE
  5
E8FA
  8
0
 10
142.5
 20
5.0
 30
0.0
 11
142.5
 21
20.0
 31
0.0
  0
LINE
  5
E8FB
  8
0
 10
167.5
 20
5.0
 30
0.0
 11
167.5
 21
20.0
 31
0.0
  0
LINE
  5
E8FC
  8
0
 10
192.5
 20
5.0
 30
0.0
 11
192.5
 21
20.0
 31
0.0
  0
LINE
  5
E8FD
  8
0
 10
217.5
 20
5.0
 30
0.0
 11
217.5
 21
20.0
 31
0.0
  0
LINE
  5
E8FE
  8
0
 10
257.4999999999998863
 20
5.0
 30
0.0
 11
257.4999999999998863
 21
20.0
 31
0.0
  0
LINE
  5
E8FF
  8
HOJO
 10
267.4999999999998863
 20
12.5
 30
0.0
 11
267.4999999999998863
 21
20.0
 31
0.0
  0
LINE
  5
E900
  8
0
 10
362.5
 20
20.0
 30
0.0
 11
362.5
 21
5.0
 31
0.0
  0
LINE
  5
E901
  8
0
 10
210.0
 20
302.0
 30
0.0
 11
210.0
 21
292.0
 31
0.0
  0
LINE
  5
E902
  8
0
 10
427.4999999999998863
 20
148.5
 30
0.0
 11
412.5
 21
148.5
 31
0.0
  0
TEXT
  5
E903
  8
0
 10
290.3000000000000114
 20
14.75
 30
0.0
 40
3.0
  1
カプセルベッド SPOT(縦型)
  7
MS_ゴシック
 72
     1
 11
315.0
 21
16.25
 31
0.0
 73
     2
  0
TEXT
  5
E904
  8
0
 10
405.3333333333332007
 20
17.0
 30
0.0
 40
2.5
  1
【-】
  7
MS_ゴシック
 72
     2
 11
411.9999999999998863
 21
19.5
 31
0.0
 73
     3
  0
ENDBLK
  5
141E
  8
0
  0
BLOCK
  8
0
  2
_OBLIQUE
 70
     0
 10
0.0
 20
0.0
 30
0.0
  3
_OBLIQUE
  1

  0
LINE
  5
159C
  8
0
  6
BYBLOCK
 62
     0
 10
-0.5
 20
-0.5
 30
0.0
 11
0.5
 21
0.5
 31
0.0
  0
ENDBLK
  5
159D
  8
0
  0
BLOCK
  8
0
  2
*D5
 70
     1
 10
0.0
 20
0.0
 30
0.0
  3
*D5
  1

  0
LINE
  5
E7E4
  8
0
 62
     0
 10
3550.000000000001819
 20
4980.0000000000009095
 30
0.0
 11
3295.0000000000381988
 21
4980.0000000000009095
 31
0.0
  0
LINE
  5
E7E5
  8
0
 62
     0
 10
3550.000000000001819
 20
7265.000000000003638
 30
0.0
 11
3295.0000000000368345
 21
7265.000000000003638
 31
0.0
  0
LINE
  5
E7E6
  8
0
 62
     0
 10
3325.0000000000381988
 20
5040.0000000000009095
 30
0.0
 11
3325.0000000000368345
 21
7205.000000000003638
 31
0.0
  0
SOLID
  5
E7E7
  8
0
 62
     0
 10
3315.0000000000381988
 20
5040.0000000000009095
 30
0.0
 11
3335.0000000000381988
 21
5040.0000000000009095
 31
0.0
 12
3325.0000000000381988
 22
4980.0000000000009095
 32
0.0
 13
3325.0000000000381988
 23
4980.0000000000009095
 33
0.0
  0
SOLID
  5
E7E8
  8
0
 62
     0
 10
3315.0000000000368345
 20
7205.000000000003638
 30
0.0
 11
3335.0000000000368345
 21
7205.000000000003638
 31
0.0
 12
3325.0000000000368345
 22
7265.000000000003638
 32
0.0
 13
3325.0000000000368345
 23
7265.000000000003638
 33
0.0
  0
INSERT
  5
E7E9
  8
0
  2
*U6
 10
0.0
 20
0.0
 30
0.0
  0
POINT
  5
E7EA
  8
DEFPOINTS
 62
     0
 10
3625.000000000001819
 20
4980.0000000000009095
 30
0.0
  0
POINT
  5
E7EB
  8
DEFPOINTS
 62
     0
 10
3625.000000000001819
 20
7265.000000000003638
 30
0.0
  0
POINT
  5
E7EC
  8
DEFPOINTS
 62
     0
 10
3325.0000000000368345
 20
7265.000000000003638
 30
0.0
  0
ENDBLK
  5
C992
  8
0
  0
BLOCK
  8
0
  2
*U6
 70
     1
 10
0.0
 20
0.0
 30
0.0
  3
*U6
  1

  0
TEXT
  5
ED34
  8
0
 10
3310.0000000000400178
 20
6025.6091370558378912
 30
0.0
 40
75.0
  1
2285
 50
90.0
  7
MS_ゴシック
  0
ENDBLK
  5
ED36
  8
0
  0
BLOCK
  8
0
  2
*D7
 70
     1
 10
0.0
 20
0.0
 30
0.0
  3
*D7
  1

  0
LINE
  5
E7ED
  8
0
 62
     0
 10
3550.000000000001819
 20
4980.0000000000009095
 30
0.0
 11
3295.0000000000391083
 21
4980.0000000000009095
 31
0.0
  0
LINE
  5
E7EE
  8
0
 62
     0
 10
3587.5000000050581548
 20
4949.9999999999954525
 30
0.0
 11
3295.0000000000391083
 21
4949.9999999999954525
 31
0.0
  0
LINE
  5
E7EF
  8
0
 62
     0
 10
3325.0000000000391083
 20
5040.0000000000009095
 30
0.0
 11
3325.0000000000391083
 21
5100.0000000000009095
 31
0.0
  0
LINE
  5
E7F0
  8
0
 62
     0
 10
3325.0000000000391083
 20
4889.9999999999972715
 30
0.0
 11
3325.0000000000391083
 21
4829.9999999999954525
 31
0.0
  0
INSERT
  5
E7F1
  8
0
  2
*U8
 10
0.0
 20
0.0
 30
0.0
  0
LINE
  5
E7F2
  8
0
 62
     0
 10
3325.0000000000391083
 20
4980.0000000000009095
 30
0.0
 11
3325.0000000000391083
 21
4949.9999999999954525
 31
0.0
  0
SOLID
  5
E7F3
  8
0
 62
     0
 10
3315.0000000000391083
 20
5040.0000000000009095
 30
0.0
 11
3335.0000000000391083
 21
5040.0000000000009095
 31
0.0
 12
3325.0000000000391083
 22
4980.0000000000009095
 32
0.0
 13
3325.0000000000391083
 23
4980.0000000000009095
 33
0.0
  0
SOLID
  5
E7F4
  8
0
 62
     0
 10
3315.0000000000391083
 20
4889.9999999999972715
 30
0.0
 11
3335.0000000000391083
 21
4889.9999999999972715
 31
0.0
 12
3325.0000000000391083
 22
4949.9999999999954525
 32
0.0
 13
3325.0000000000391083
 23
4949.9999999999954525
 33
0.0
  0
POINT
  5
E7F5
  8
DEFPOINTS
 62
     0
 10
3625.000000000001819
 20
4980.0000000000009095
 30
0.0
  0
POINT
  5
E7F6
  8
DEFPOINTS
 62
     0
 10
3662.5000000050590643
 20
4949.9999999999954525
 30
0.0
  0
POINT
  5
E7F7
  8
DEFPOINTS
 62
     0
 10
3325.0000000000391083
 20
4949.9999999999954525
 30
0.0
  0
ENDBLK
  5
C9AA
  8
0
  0
BLOCK
  8
0
  2
*U8
 70
     1
 10
0.0
 20
0.0
 30
0.0
  3
*U8
  1

  0
TEXT
  5
ED38
  8
0
 10
3310.000000000001819
 20
4781.0786802030397666
 30
0.0
 40
75.0
  1
30
 50
90.0
  7
MS_ゴシック
  0
ENDBLK
  5
ED3A
  8
0
  0
BLOCK
  8
0
  2
*D9
 70
     1
 10
0.0
 20
0.0
 30
0.0
  3
*D9
  1

  0
LINE
  5
E7F8
  8
0
 62
     0
 10
3587.5000000050581548
 20
4949.9999999999954525
 30
0.0
 11
3145.0000000000368345
 21
4949.9999999999954525
 31
0.0
  0
LINE
  5
E7F9
  8
0
 62
     0
 10
3550.000000000001819
 20
7265.000000000003638
 30
0.0
 11
3145.0000000000350155
 21
7265.000000000003638
 31
0.0
  0
LINE
  5
E7FA
  8
0
 62
     0
 10
3175.0000000000368345
 20
5009.9999999999972715
 30
0.0
 11
3175.000000000035925
 21
7205.000000000003638
 31
0.0
  0
SOLID
  5
E7FB
  8
0
 62
     0
 10
3165.000000000035925
 20
5009.9999999999972715
 30
0.0
 11
3185.000000000035925
 21
5009.9999999999972715
 31
0.0
 12
3175.0000000000368345
 22
4949.9999999999954525
 32
0.0
 13
3175.0000000000368345
 23
4949.9999999999954525
 33
0.0
  0
SOLID
  5
E7FC
  8
0
 62
     0
 10
3165.000000000035925
 20
7205.000000000003638
 30
0.0
 11
3185.000000000035925
 21
7205.000000000003638
 31
0.0
 12
3175.000000000035925
 22
7265.000000000003638
 32
0.0
 13
3175.000000000035925
 23
7265.000000000003638
 33
0.0
  0
INSERT
  5
E7FD
  8
0
  2
*U10
 10
0.0
 20
0.0
 30
0.0
  0
POINT
  5
E7FE
  8
DEFPOINTS
 62
     0
 10
3662.5000000050590643
 20
4949.9999999999954525
 30
0.0
  0
POINT
  5
E7FF
  8
DEFPOINTS
 62
     0
 10
3625.000000000001819
 20
7265.000000000003638
 30
0.0
  0
POINT
  5
E800
  8
DEFPOINTS
 62
     0
 10
3175.000000000035925
 20
7265.000000000003638
 30
0.0
  0
ENDBLK
  5
C9B8
  8
0
  0
BLOCK
  8
0
  2
*U10
 70
     1
 10
0.0
 20
0.0
 30
0.0
  3
*U10
  1

  0
TEXT
  5
ED3C
  8
0
 10
3160.0000000000368345
 20
6010.6091370558351628
 30
0.0
 40
75.0
  1
2315
 50
90.0
  7
MS_ゴシック
  0
ENDBLK
  5
ED3E
  8
0
  0
BLOCK
  8
0
  2
*D11
 70
     1
 10
0.0
 20
0.0
 30
0.0
  3
*D11
  1

  0
LINE
  5
E7DB
  8
0
 62
     0
 10
6200.0
 20
4904.9999999999918145
 30
0.0
 11
6200.0
 21
4679.9999999999909051
 31
0.0
  0
LINE
  5
E7DC
  8
0
 62
     0
 10
8330.5
 20
4904.9999999999918145
 30
0.0
 11
8330.5
 21
4679.9999999999909051
 31
0.0
  0
LINE
  5
E7DD
  8
0
 62
     0
 10
6260.0
 20
4709.9999999999909051
 30
0.0
 11
8270.5
 21
4709.9999999999909051
 31
0.0
  0
SOLID
  5
E7DE
  8
0
 62
     0
 10
6260.0
 20
4719.9999999999899956
 30
0.0
 11
6260.0
 21
4699.9999999999918145
 31
0.0
 12
6200.0
 22
4709.9999999999909051
 32
0.0
 13
6200.0
 23
4709.9999999999909051
 33
0.0
  0
SOLID
  5
E7DF
  8
0
 62
     0
 10
8270.5
 20
4719.9999999999899956
 30
0.0
 11
8270.5
 21
4699.9999999999918145
 31
0.0
 12
8330.5
 22
4709.9999999999909051
 32
0.0
 13
8330.5
 23
4709.9999999999909051
 33
0.0
  0
INSERT
  5
E7E0
  8
0
  2
*U12
 10
0.0
 20
0.0
 30
0.0
  0
POINT
  5
E7E1
  8
DEFPOINTS
 62
     0
 10
6200.0
 20
4979.9999999999918145
 30
0.0
  0
POINT
  5
E7E2
  8
DEFPOINTS
 62
     0
 10
8330.5
 20
4979.9999999999918145
 30
0.0
  0
POINT
  5
E7E3
  8
DEFPOINTS
 62
     0
 10
8330.5
 20
4709.9999999999909051
 30
0.0
  0
ENDBLK
  5
C9EA
  8
0
  0
BLOCK
  8
0
  2
*U12
 70
     1
 10
0.0
 20
0.0
 30
0.0
  3
*U12
  1

  0
TEXT
  5
ED30
  8
0
 10
7119.628172588832058
 20
4724.9999999999918145
 30
0.0
 40
75.0
  1
2130.5
  7
MS_ゴシック
  0
ENDBLK
  5
ED32
  8
0
  0
BLOCK
  8
0
  2
*D13
 70
     1
 10
0.0
 20
0.0
 30
0.0
  3
*D13
  1

  0
LINE
  5
E57E
  8
0
 62
     0
 10
1662.4999999999920419
 20
3093.0000000831209945
 30
0.0
 11
1617.5000000000029559
 21
3093.0000000831209945
 31
0.0
  0
LINE
  5
E57F
  8
0
 62
     0
 10
1662.4999999999929514
 20
3023.0000000050581548
 30
0.0
 11
1617.5000000000029559
 21
3023.0000000050581548
 31
0.0
  0
LINE
  5
E580
  8
0
 62
     0
 10
1587.5000000000040927
 20
3153.0000000831209945
 30
0.0
 11
1587.5000000000040927
 21
3213.000000083120085
 31
0.0
  0
LINE
  5
E581
  8
0
 62
     0
 10
1587.5000000000040927
 20
2963.0000000050581548
 30
0.0
 11
1587.5000000000040927
 21
2903.0000000050581548
 31
0.0
  0
INSERT
  5
E582
  8
0
  2
*U14
 10
0.0
 20
0.0
 30
0.0
  0
LINE
  5
E583
  8
0
 62
     0
 10
1587.5000000000040927
 20
3093.0000000831209945
 30
0.0
 11
1587.5000000000040927
 21
3023.0000000050581548
 31
0.0
  0
SOLID
  5
E584
  8
0
 62
     0
 10
1577.5000000000029559
 20
3153.0000000831209945
 30
0.0
 11
1597.5000000000029559
 21
3153.0000000831209945
 31
0.0
 12
1587.5000000000040927
 22
3093.0000000831209945
 32
0.0
 13
1587.5000000000040927
 23
3093.0000000831209945
 33
0.0
  0
SOLID
  5
E585
  8
0
 62
     0
 10
1577.5000000000029559
 20
2963.0000000050581548
 30
0.0
 11
1597.5000000000029559
 21
2963.0000000050581548
 31
0.0
 12
1587.5000000000040927
 22
3023.0000000050581548
 32
0.0
 13
1587.5000000000040927
 23
3023.0000000050581548
 33
0.0
  0
POINT
  5
E586
  8
DEFPOINTS
 62
     0
 10
1587.4999999999920419
 20
3093.0000000831209945
 30
0.0
  0
POINT
  5
E587
  8
DEFPOINTS
 62
     0
 10
1587.4999999999929514
 20
3023.0000000050581548
 30
0.0
  0
POINT
  5
E588
  8
DEFPOINTS
 62
     0
 10
1587.5000000000040927
 20
3023.0000000050581548
 30
0.0
  0
ENDBLK
  5
CA90
  8
0
  0
BLOCK
  8
0
  2
*U14
 70
     1
 10
0.0
 20
0.0
 30
0.0
  3
*U14
  1

  0
TEXT
  5
EC04
  8
0
 10
1572.4999999999920419
 20
3163.1269036364210478
 30
0.0
 40
75.0
  1
70
 50
90.0
  7
MS_ゴシック
  0
ENDBLK
  5
EC06
  8
0
  0
BLOCK
  8
0
  2
*D15
 70
     1
 10
0.0
 20
0.0
 30
0.0
  3
*D15
  1

  0
LINE
  5
E53B
  8
0
 62
     0
 10
975.0
 20
900.0000000000007958
 30
0.0
 11
719.9999997434945271
 21
900.0000000000007958
 31
0.0
  0
LINE
  5
E53C
  8
0
 62
     0
 10
974.9999999999871534
 20
3030.5000000050590643
 30
0.0
 11
719.9999997434939587
 21
3030.5000000050590643
 31
0.0
  0
LINE
  5
E53D
  8
0
 62
     0
 10
749.9999997434945271
 20
960.0000000000010232
 30
0.0
 11
749.999999743493845
 21
2970.5000000050581548
 31
0.0
  0
SOLID
  5
E53E
  8
0
 62
     0
 10
739.9999997434945271
 20
960.0000000000010232
 30
0.0
 11
759.9999997434945271
 21
960.0000000000010232
 31
0.0
 12
749.9999997434945271
 22
900.0000000000007958
 32
0.0
 13
749.9999997434945271
 23
900.0000000000007958
 33
0.0
  0
SOLID
  5
E53F
  8
0
 62
     0
 10
739.9999997434940724
 20
2970.5000000050581548
 30
0.0
 11
759.9999997434941861
 21
2970.5000000050581548
 31
0.0
 12
749.999999743493845
 22
3030.5000000050590643
 32
0.0
 13
749.999999743493845
 23
3030.5000000050590643
 33
0.0
  0
INSERT
  5
E540
  8
0
  2
*U16
 10
0.0
 20
0.0
 30
0.0
  0
POINT
  5
E541
  8
DEFPOINTS
 62
     0
 10
1050.0
 20
900.0000000000007958
 30
0.0
  0
POINT
  5
E542
  8
DEFPOINTS
 62
     0
 10
1049.9999999999870397
 20
3030.5000000050590643
 30
0.0
  0
POINT
  5
E543
  8
DEFPOINTS
 62
     0
 10
749.999999743493845
 20
3030.5000000050590643
 30
0.0
  0
ENDBLK
  5
CA9E
  8
0
  0
BLOCK
  8
0
  2
*U16
 70
     1
 10
0.0
 20
0.0
 30
0.0
  3
*U16
  1

  0
TEXT
  5
EBF8
  8
0
 10
734.9999997434946408
 20
1819.628172591360908
 30
0.0
 40
75.0
  1
2130.5
 50
90.0
  7
MS_ゴシック
  0
ENDBLK
  5
EBFA
  8
0
  0
BLOCK
  8
0
  2
*D17
 70
     1
 10
0.0
 20
0.0
 30
0.0
  3
*D17
  1

  0
LINE
  5
E544
  8
0
 62
     0
 10
974.9999999999906777
 20
3093.0000000831209945
 30
0.0
 11
719.999999743493845
 21
3093.0000000831209945
 31
0.0
  0
LINE
  5
E545
  8
0
 62
     0
 10
974.9999999999871534
 20
3030.5000000050590643
 30
0.0
 11
719.999999743493845
 21
3030.5000000050590643
 31
0.0
  0
LINE
  5
E546
  8
0
 62
     0
 10
749.999999743493845
 20
3153.0000000831209945
 30
0.0
 11
749.999999743493845
 21
3213.000000083120085
 31
0.0
  0
LINE
  5
E547
  8
0
 62
     0
 10
749.999999743493845
 20
2970.5000000050581548
 30
0.0
 11
749.999999743493845
 21
2910.5000000050581548
 31
0.0
  0
INSERT
  5
E548
  8
0
  2
*U18
 10
0.0
 20
0.0
 30
0.0
  0
LINE
  5
E549
  8
0
 62
     0
 10
749.999999743493845
 20
3093.0000000831209945
 30
0.0
 11
749.999999743493845
 21
3030.5000000050590643
 31
0.0
  0
SOLID
  5
E54A
  8
0
 62
     0
 10
739.999999743493845
 20
3153.0000000831209945
 30
0.0
 11
759.999999743493845
 21
3153.0000000831209945
 31
0.0
 12
749.999999743493845
 22
3093.0000000831209945
 32
0.0
 13
749.999999743493845
 23
3093.0000000831209945
 33
0.0
  0
SOLID
  5
E54B
  8
0
 62
     0
 10
739.999999743493845
 20
2970.5000000050581548
 30
0.0
 11
759.999999743493845
 21
2970.5000000050581548
 31
0.0
 12
749.999999743493845
 22
3030.5000000050590643
 32
0.0
 13
749.999999743493845
 23
3030.5000000050590643
 33
0.0
  0
POINT
  5
E54C
  8
DEFPOINTS
 62
     0
 10
1049.9999999999899956
 20
3093.0000000831209945
 30
0.0
  0
POINT
  5
E54D
  8
DEFPOINTS
 62
     0
 10
1049.9999999999870397
 20
3030.5000000050590643
 30
0.0
  0
POINT
  5
E54E
  8
DEFPOINTS
 62
     0
 10
749.999999743493845
 20
3030.5000000050590643
 30
0.0
  0
ENDBLK
  5
CAAA
  8
0
  0
BLOCK
  8
0
  2
*U18
 70
     1
 10
0.0
 20
0.0
 30
0.0
  3
*U18
  1

  0
TEXT
  5
EBFC
  8
0
 10
734.9999997434872512
 20
3145.7229882392230138
 30
0.0
 40
75.0
  1
62.5
 50
90.0
  7
MS_ゴシック
  0
ENDBLK
  5
EBFE
  8
0
  0
BLOCK
  8
0
  2
*D19
 70
     1
 10
0.0
 20
0.0
 30
0.0
  3
*D19
  1

  0
LINE
  5
E589
  8
0
 62
     0
 10
1044.9999999999899956
 20
3105.500000005055881
 30
0.0
 11
1044.9999999999899956
 21
3510.5000000050381459
 31
0.0
  0
LINE
  5
E58A
  8
0
 62
     0
 10
1049.9999999999899956
 20
3105.500000005055881
 30
0.0
 11
1049.9999999999899956
 21
3510.5000000050381459
 31
0.0
  0
LINE
  5
E58B
  8
0
 62
     0
 10
984.9999999999903366
 20
3480.5000000050367817
 30
0.0
 11
924.9999999999904503
 21
3480.5000000050367817
 31
0.0
  0
LINE
  5
E58C
  8
0
 62
     0
 10
1109.9999999999899956
 20
3480.5000000050367817
 30
0.0
 11
1169.9999999999899956
 21
3480.5000000050367817
 31
0.0
  0
INSERT
  5
E58D
  8
0
  2
*U20
 10
0.0
 20
0.0
 30
0.0
  0
LINE
  5
E58E
  8
0
 62
     0
 10
1044.9999999999899956
 20
3480.5000000050367817
 30
0.0
 11
1049.9999999999899956
 21
3480.5000000050367817
 31
0.0
  0
SOLID
  5
E58F
  8
0
 62
     0
 10
984.9999999999903366
 20
3490.5000000050367817
 30
0.0
 11
984.9999999999903366
 21
3470.5000000050381459
 31
0.0
 12
1044.9999999999899956
 22
3480.5000000050367817
 32
0.0
 13
1044.9999999999899956
 23
3480.5000000050367817
 33
0.0
  0
SOLID
  5
E590
  8
0
 62
     0
 10
1109.9999999999899956
 20
3490.5000000050367817
 30
0.0
 11
1109.9999999999899956
 21
3470.5000000050381459
 31
0.0
 12
1049.9999999999899956
 22
3480.5000000050367817
 32
0.0
 13
1049.9999999999899956
 23
3480.5000000050367817
 33
0.0
  0
POINT
  5
E591
  8
DEFPOINTS
 62
     0
 10
1044.9999999999899956
 20
3030.5000000050567905
 30
0.0
  0
POINT
  5
E592
  8
DEFPOINTS
 62
     0
 10
1049.9999999999899956
 20
3030.5000000050567905
 30
0.0
  0
POINT
  5
E593
  8
DEFPOINTS
 62
     0
 10
1049.9999999999899956
 20
3480.5000000050367817
 30
0.0
  0
ENDBLK
  5
CAD0
  8
0
  0
BLOCK
  8
0
  2
*U20
 70
     1
 10
0.0
 20
0.0
 30
0.0
  3
*U20
  1

  0
TEXT
  5
EC08
  8
0
 10
901.3959390862848977
 20
3495.5000000050381459
 30
0.0
 40
75.0
  1
5
  7
MS_ゴシック
  0
ENDBLK
  5
EC0A
  8
0
  0
BLOCK
  8
0
  2
*D21
 70
     1
 10
0.0
 20
0.0
 30
0.0
  3
*D21
  1

  0
LINE
  5
E826
  8
0
 62
     0
 10
4700.0
 20
795.0000000000002274
 30
0.0
 11
4700.0
 21
450.0000000000003979
 31
0.0
  0
LINE
  5
E827
  8
0
 62
     0
 10
6850.0
 20
795.0000000000002274
 30
0.0
 11
6850.0
 21
450.0000000000003979
 31
0.0
  0
LINE
  5
E828
  8
0
 62
     0
 10
4760.0
 20
480.0000000000003979
 30
0.0
 11
6790.0
 21
480.0000000000003979
 31
0.0
  0
SOLID
  5
E829
  8
0
 62
     0
 10
4760.0
 20
490.0000000000002842
 30
0.0
 11
4760.0
 21
470.0000000000002842
 31
0.0
 12
4700.0
 22
480.0000000000003979
 32
0.0
 13
4700.0
 23
480.0000000000003979
 33
0.0
  0
SOLID
  5
E82A
  8
0
 62
     0
 10
6790.0
 20
490.0000000000002842
 30
0.0
 11
6790.0
 21
470.0000000000002842
 31
0.0
 12
6850.0
 22
480.0000000000003979
 32
0.0
 13
6850.0
 23
480.0000000000003979
 33
0.0
  0
INSERT
  5
E82B
  8
0
  2
*U22
 10
0.0
 20
0.0
 30
0.0
  0
POINT
  5
E82C
  8
DEFPOINTS
 62
     0
 10
4700.0
 20
870.0000000000002274
 30
0.0
  0
POINT
  5
E82D
  8
DEFPOINTS
 62
     0
 10
6850.0
 20
870.0000000000002274
 30
0.0
  0
POINT
  5
E82E
  8
DEFPOINTS
 62
     0
 10
6850.0
 20
480.0000000000003979
 30
0.0
  0
ENDBLK
  5
CFDC
  8
0
  0
BLOCK
  8
0
  2
*U22
 70
     1
 10
0.0
 20
0.0
 30
0.0
  3
*U22
  1

  0
TEXT
  5
ED50
  8
0
 10
5677.1573604060922662
 20
495.0000000000002842
 30
0.0
 40
75.0
  1
2150
  7
MS_ゴシック
  0
ENDBLK
  5
ED52
  8
0
  0
BLOCK
  8
0
  2
*D23
 70
     1
 10
0.0
 20
0.0
 30
0.0
  3
*D23
  1

  0
LINE
  5
E82F
  8
0
 62
     0
 10
4625.0
 20
900.0000000000007958
 30
0.0
 11
4370.0000000000336513
 21
900.0000000000007958
 31
0.0
  0
LINE
  5
E830
  8
0
 62
     0
 10
4625.0
 20
3170.0000000000031832
 30
0.0
 11
4370.0000000000327418
 21
3170.0000000000031832
 31
0.0
  0
LINE
  5
E831
  8
0
 62
     0
 10
4400.0000000000336513
 20
960.0000000000010232
 30
0.0
 11
4400.0000000000327418
 21
3110.000000000001819
 31
0.0
  0
SOLID
  5
E832
  8
0
 62
     0
 10
4390.0000000000345608
 20
960.0000000000010232
 30
0.0
 11
4410.0000000000336513
 21
960.0000000000010232
 31
0.0
 12
4400.0000000000336513
 22
900.0000000000007958
 32
0.0
 13
4400.0000000000336513
 23
900.0000000000007958
 33
0.0
  0
SOLID
  5
E833
  8
0
 62
     0
 10
4390.0000000000345608
 20
3110.000000000001819
 30
0.0
 11
4410.0000000000327418
 21
3110.000000000001819
 31
0.0
 12
4400.0000000000327418
 22
3170.0000000000031832
 32
0.0
 13
4400.0000000000327418
 23
3170.0000000000031832
 33
0.0
  0
INSERT
  5
E834
  8
0
  2
*U24
 10
0.0
 20
0.0
 30
0.0
  0
POINT
  5
E835
  8
DEFPOINTS
 62
     0
 10
4700.0000000000009095
 20
900.0000000000007958
 30
0.0
  0
POINT
  5
E836
  8
DEFPOINTS
 62
     0
 10
4700.0000000000009095
 20
3170.0000000000031832
 30
0.0
  0
POINT
  5
E837
  8
DEFPOINTS
 62
     0
 10
4400.0000000000327418
 20
3170.0000000000031832
 30
0.0
  0
ENDBLK
  5
D032
  8
0
  0
BLOCK
  8
0
  2
*U24
 70
     1
 10
0.0
 20
0.0
 30
0.0
  3
*U24
  1

  0
TEXT
  5
ED54
  8
0
 10
4385.0000000000345608
 20
1937.157360406090902
 30
0.0
 40
75.0
  1
2270
 50
90.0
  7
MS_ゴシック
  0
ENDBLK
  5
ED56
  8
0
  0
BLOCK
  8
0
  2
*D25
 70
     1
 10
0.0
 20
0.0
 30
0.0
  3
*D25
  1

  0
LINE
  5
E838
  8
0
 62
     0
 10
4625.0
 20
900.0000000000007958
 30
0.0
 11
4370.0000000000381988
 21
900.0000000000007958
 31
0.0
  0
LINE
  5
E839
  8
0
 62
     0
 10
4625.0
 20
870.0000000000009095
 30
0.0
 11
4370.0000000000381988
 21
870.0000000000009095
 31
0.0
  0
LINE
  5
E83A
  8
0
 62
     0
 10
4400.0000000000381988
 20
960.0000000000010232
 30
0.0
 11
4400.0000000000381988
 21
1020.0000000000010232
 31
0.0
  0
LINE
  5
E83B
  8
0
 62
     0
 10
4400.0000000000381988
 20
810.0000000000007958
 30
0.0
 11
4400.0000000000381988
 21
750.0000000000005684
 31
0.0
  0
INSERT
  5
E83C
  8
0
  2
*U26
 10
0.0
 20
0.0
 30
0.0
  0
LINE
  5
E83D
  8
0
 62
     0
 10
4400.0000000000381988
 20
900.0000000000007958
 30
0.0
 11
4400.0000000000381988
 21
870.0000000000009095
 31
0.0
  0
SOLID
  5
E83E
  8
0
 62
     0
 10
4390.0000000000381988
 20
960.0000000000010232
 30
0.0
 11
4410.0000000000381988
 21
960.0000000000010232
 31
0.0
 12
4400.0000000000381988
 22
900.0000000000007958
 32
0.0
 13
4400.0000000000381988
 23
900.0000000000007958
 33
0.0
  0
SOLID
  5
E83F
  8
0
 62
     0
 10
4390.0000000000381988
 20
810.0000000000007958
 30
0.0
 11
4410.0000000000381988
 21
810.0000000000007958
 31
0.0
 12
4400.0000000000381988
 22
870.0000000000009095
 32
0.0
 13
4400.0000000000381988
 23
870.0000000000009095
 33
0.0
  0
POINT
  5
E840
  8
DEFPOINTS
 62
     0
 10
4700.0000000000009095
 20
900.0000000000007958
 30
0.0
  0
POINT
  5
E841
  8
DEFPOINTS
 62
     0
 10
4700.0000000000009095
 20
870.0000000000009095
 30
0.0
  0
POINT
  5
E842
  8
DEFPOINTS
 62
     0
 10
4400.0000000000381988
 20
870.0000000000009095
 30
0.0
  0
ENDBLK
  5
D03E
  8
0
  0
BLOCK
  8
0
  2
*U26
 70
     1
 10
0.0
 20
0.0
 30
0.0
  3
*U26
  1

  0
TEXT
  5
ED58
  8
0
 10
4385.0
 20
701.0786802030387435
 30
0.0
 40
75.0
  1
30
 50
90.0
  7
MS_ゴシック
  0
ENDBLK
  5
ED5A
  8
0
  0
BLOCK
  8
0
  2
*D27
 70
     1
 10
0.0
 20
0.0
 30
0.0
  3
*D27
  1

  0
LINE
  5
E843
  8
0
 62
     0
 10
4662.5000000050567905
 20
869.9999999999953388
 30
0.0
 11
4220.0000000000372893
 21
869.9999999999953388
 31
0.0
  0
LINE
  5
E844
  8
0
 62
     0
 10
4625.0
 20
3170.0
 30
0.0
 11
4220.0000000000327418
 21
3170.0
 31
0.0
  0
LINE
  5
E845
  8
0
 62
     0
 10
4250.0000000000336513
 20
929.9999999999949978
 30
0.0
 11
4250.0000000000327418
 21
3110.0
 31
0.0
  0
SOLID
  5
E846
  8
0
 62
     0
 10
4240.0000000000336513
 20
929.9999999999949978
 30
0.0
 11
4260.0000000000363798
 21
929.9999999999949978
 31
0.0
 12
4250.0000000000336513
 22
869.9999999999953388
 32
0.0
 13
4250.0000000000336513
 23
869.9999999999953388
 33
0.0
  0
SOLID
  5
E847
  8
0
 62
     0
 10
4240.0000000000327418
 20
3110.0
 30
0.0
 11
4260.0000000000345608
 21
3110.0
 31
0.0
 12
4250.0000000000327418
 22
3170.0
 32
0.0
 13
4250.0000000000327418
 23
3170.0
 33
0.0
  0
INSERT
  5
E848
  8
0
  2
*U28
 10
0.0
 20
0.0
 30
0.0
  0
POINT
  5
E849
  8
DEFPOINTS
 62
     0
 10
4737.5000000050567905
 20
869.9999999999953388
 30
0.0
  0
POINT
  5
E84A
  8
DEFPOINTS
 62
     0
 10
4700.0000000000009095
 20
3170.0
 30
0.0
  0
POINT
  5
E84B
  8
DEFPOINTS
 62
     0
 10
4250.0000000000327418
 20
3170.0
 30
0.0
  0
ENDBLK
  5
D04C
  8
0
  0
BLOCK
  8
0
  2
*U28
 70
     1
 10
0.0
 20
0.0
 30
0.0
  3
*U28
  1

  0
TEXT
  5
ED5C
  8
0
 10
4235.0000000000336513
 20
1922.1573604060849902
 30
0.0
 40
75.0
  1
2300
 50
90.0
  7
MS_ゴシック
  0
ENDBLK
  5
ED5E
  8
0
  0
BLOCK
  8
0
  2
*D29
 70
     1
 10
0.0
 20
0.0
 30
0.0
  3
*D29
  1

  0
LINE
  5
E5BA
  8
0
 62
     0
 10
3199.9999999999931788
 20
3105.500000005055881
 30
0.0
 11
3199.9999999999931788
 21
3510.5000000050381459
 31
0.0
  0
LINE
  5
E5BB
  8
0
 62
     0
 10
1049.9999999999920419
 20
3105.500000005055881
 30
0.0
 11
1049.9999999999920419
 21
3510.5000000050381459
 31
0.0
  0
LINE
  5
E5BC
  8
0
 62
     0
 10
3139.9999999999931788
 20
3480.5000000050367817
 30
0.0
 11
1109.9999999999920419
 21
3480.5000000050367817
 31
0.0
  0
SOLID
  5
E5BD
  8
0
 62
     0
 10
3139.9999999999931788
 20
3490.5000000050367817
 30
0.0
 11
3139.9999999999931788
 21
3470.5000000050381459
 31
0.0
 12
3199.9999999999931788
 22
3480.5000000050367817
 32
0.0
 13
3199.9999999999931788
 23
3480.5000000050367817
 33
0.0
  0
SOLID
  5
E5BE
  8
0
 62
     0
 10
1109.9999999999920419
 20
3490.5000000050367817
 30
0.0
 11
1109.9999999999920419
 21
3470.5000000050381459
 31
0.0
 12
1049.9999999999920419
 22
3480.5000000050367817
 32
0.0
 13
1049.9999999999920419
 23
3480.5000000050367817
 33
0.0
  0
INSERT
  5
E5BF
  8
0
  2
*U30
 10
0.0
 20
0.0
 30
0.0
  0
POINT
  5
E5C0
  8
DEFPOINTS
 62
     0
 10
3199.9999999999931788
 20
3030.5000000050567905
 30
0.0
  0
POINT
  5
E5C1
  8
DEFPOINTS
 62
     0
 10
1049.9999999999920419
 20
3030.5000000050567905
 30
0.0
  0
POINT
  5
E5C2
  8
DEFPOINTS
 62
     0
 10
1049.9999999999920419
 20
3480.5000000050367817
 30
0.0
  0
ENDBLK
  5
D38C
  8
0
  0
BLOCK
  8
0
  2
*U30
 70
     1
 10
0.0
 20
0.0
 30
0.0
  3
*U30
  1

  0
TEXT
  5
EC0C
  8
0
 10
2027.1573604060840808
 20
3495.5000000050381459
 30
0.0
 40
75.0
  1
2150
  7
MS_ゴシック
  0
ENDBLK
  5
EC0E
  8
0
  0
BLOCK
  8
0
  2
*D31
 70
     1
 10
0.0
 20
0.0
 30
0.0
  3
*D31
  1

  0
LINE
  5
E575
  8
0
 62
     0
 10
2125.0000000000031832
 20
825.0
 30
0.0
 11
2125.0000000000031832
 21
420.0000000000200089
 31
0.0
  0
LINE
  5
E576
  8
0
 62
     0
 10
1050.0000000000009095
 20
825.0
 30
0.0
 11
1050.0000000000009095
 21
420.0000000000200089
 31
0.0
  0
LINE
  5
E577
  8
0
 62
     0
 10
2065.0000000000031832
 20
450.0000000000197815
 30
0.0
 11
1110.0000000000009095
 21
450.0000000000197815
 31
0.0
  0
SOLID
  5
E578
  8
0
 62
     0
 10
2065.0000000000031832
 20
460.0000000000198952
 30
0.0
 11
2065.0000000000031832
 21
440.0000000000198952
 31
0.0
 12
2125.0000000000031832
 22
450.0000000000197815
 32
0.0
 13
2125.0000000000031832
 23
450.0000000000197815
 33
0.0
  0
SOLID
  5
E579
  8
0
 62
     0
 10
1110.0000000000009095
 20
460.0000000000198952
 30
0.0
 11
1110.0000000000009095
 21
440.0000000000198952
 31
0.0
 12
1050.0000000000009095
 22
450.0000000000197815
 32
0.0
 13
1050.0000000000009095
 23
450.0000000000197815
 33
0.0
  0
INSERT
  5
E57A
  8
0
  2
*U32
 10
0.0
 20
0.0
 30
0.0
  0
POINT
  5
E57B
  8
DEFPOINTS
 62
     0
 10
2125.0000000000031832
 20
900.0
 30
0.0
  0
POINT
  5
E57C
  8
DEFPOINTS
 62
     0
 10
1050.0000000000009095
 20
900.0
 30
0.0
  0
POINT
  5
E57D
  8
DEFPOINTS
 62
     0
 10
1050.0000000000009095
 20
450.0000000000197815
 30
0.0
  0
ENDBLK
  5
D3B9
  8
0
  0
BLOCK
  8
0
  2
*U32
 70
     1
 10
0.0
 20
0.0
 30
0.0
  3
*U32
  1

  0
TEXT
  5
EC00
  8
0
 10
1488.1345177664979929
 20
465.0000000000198952
 30
0.0
 40
75.0
  1
1075
  7
MS_ゴシック
  0
ENDBLK
  5
EC02
  8
0
  0
BLOCK
  8
0
  2
*D33
 70
     1
 10
0.0
 20
0.0
 30
0.0
  3
*D33
  1

  0
LINE
  5
E5C3
  8
0
 62
     0
 10
2125.0000000000031832
 20
825.0
 30
0.0
 11
2125.0000000000031832
 21
420.0000000000200089
 31
0.0
  0
LINE
  5
E5C4
  8
0
 62
     0
 10
3200.0
 20
825.0000000002213483
 30
0.0
 11
3200.0
 21
420.0000000000200089
 31
0.0
  0
LINE
  5
E5C5
  8
0
 62
     0
 10
2185.0000000000040927
 20
450.0000000000197815
 30
0.0
 11
3140.0
 21
450.0000000000197815
 31
0.0
  0
SOLID
  5
E5C6
  8
0
 62
     0
 10
2185.0000000000040927
 20
460.0000000000198952
 30
0.0
 11
2185.0000000000040927
 21
440.0000000000198952
 31
0.0
 12
2125.0000000000031832
 22
450.0000000000197815
 32
0.0
 13
2125.0000000000031832
 23
450.0000000000197815
 33
0.0
  0
SOLID
  5
E5C7
  8
0
 62
     0
 10
3140.0
 20
460.0000000000198952
 30
0.0
 11
3140.0
 21
440.0000000000198952
 31
0.0
 12
3200.0
 22
450.0000000000197815
 32
0.0
 13
3200.0
 23
450.0000000000197815
 33
0.0
  0
INSERT
  5
E5C8
  8
0
  2
*U34
 10
0.0
 20
0.0
 30
0.0
  0
POINT
  5
E5C9
  8
DEFPOINTS
 62
     0
 10
2125.0000000000031832
 20
900.0
 30
0.0
  0
POINT
  5
E5CA
  8
DEFPOINTS
 62
     0
 10
3200.0
 20
900.0000000002213483
 30
0.0
  0
POINT
  5
E5CB
  8
DEFPOINTS
 62
     0
 10
3200.0
 20
450.0000000000197815
 30
0.0
  0
ENDBLK
  5
D3EC
  8
0
  0
BLOCK
  8
0
  2
*U34
 70
     1
 10
0.0
 20
0.0
 30
0.0
  3
*U34
  1

  0
TEXT
  5
EC10
  8
0
 10
2563.1345177664989023
 20
465.0000000000198952
 30
0.0
 40
75.0
  1
1075
  7
MS_ゴシック
  0
ENDBLK
  5
EC12
  8
0
  0
BLOCK
  8
0
  2
*D35
 70
     1
 10
0.0
 20
0.0
 30
0.0
  3
*D35
  1

  0
LINE
  5
E801
  8
0
 62
     0
 10
3692.5000000000009095
 20
7272.5
 30
0.0
 11
3692.5000000000009095
 21
7595.0
 31
0.0
  0
LINE
  5
E802
  8
0
 62
     0
 10
4632.5
 20
7272.5
 30
0.0
 11
4632.5
 21
7595.0
 31
0.0
  0
LINE
  5
E803
  8
0
 62
     0
 10
3692.5000000000009095
 20
7565.0
 30
0.0
 11
4632.5
 21
7565.0
 31
0.0
  0
INSERT
  5
E804
  8
0
 62
     0
  2
_OBLIQUE
 10
3692.5000000000009095
 20
7565.0
 30
0.0
 41
60.0
 42
60.0
 43
60.0
 50
180.0
  0
INSERT
  5
E805
  8
0
 62
     0
  2
_OBLIQUE
 10
4632.5
 20
7565.0
 30
0.0
 41
60.0
 42
60.0
 43
60.0
  0
INSERT
  5
E806
  8
0
  2
*U36
 10
0.0
 20
0.0
 30
0.0
  0
POINT
  5
E807
  8
DEFPOINTS
 62
     0
 10
3692.5000000000009095
 20
7197.5000000000009095
 30
0.0
  0
POINT
  5
E808
  8
DEFPOINTS
 62
     0
 10
4632.5
 20
7197.5000000000009095
 30
0.0
  0
POINT
  5
E809
  8
DEFPOINTS
 62
     0
 10
4632.5
 20
7565.0
 30
0.0
  0
ENDBLK
  5
D471
  8
0
  0
BLOCK
  8
0
  2
*U36
 70
     1
 10
0.0
 20
0.0
 30
0.0
  3
*U36
  1

  0
TEXT
  5
ED40
  8
0
 62
    10
 10
4088.832487309643966
 20
7580.0
 30
0.0
 40
75.0
  1
940
  7
MS_ゴシック
  0
ENDBLK
  5
ED42
  8
0
  0
BLOCK
  8
0
  2
*D37
 70
     1
 10
0.0
 20
0.0
 30
0.0
  3
*D37
  1

  0
LINE
  5
E80A
  8
0
 62
     0
 10
4707.5000000000009095
 20
7197.500000000003638
 30
0.0
 11
5030.0000000000118234
 21
7197.500000000003638
 31
0.0
  0
LINE
  5
E80B
  8
0
 62
     0
 10
4707.5000000000009095
 20
5517.5000000000009095
 30
0.0
 11
5030.0000000000145519
 21
5517.5000000000009095
 31
0.0
  0
LINE
  5
E80C
  8
0
 62
     0
 10
5000.0000000000127329
 20
7197.500000000003638
 30
0.0
 11
5000.0000000000145519
 21
5517.5000000000009095
 31
0.0
  0
INSERT
  5
E80D
  8
0
 62
     0
  2
_OBLIQUE
 10
5000.0000000000127329
 20
7197.500000000003638
 30
0.0
 41
60.0
 42
60.0
 43
60.0
 50
90.0
  0
INSERT
  5
E80E
  8
0
 62
     0
  2
_OBLIQUE
 10
5000.0000000000145519
 20
5517.5000000000009095
 30
0.0
 41
60.0
 42
60.0
 43
60.0
 50
270.0
  0
INSERT
  5
E80F
  8
0
  2
*U38
 10
0.0
 20
0.0
 30
0.0
  0
POINT
  5
E810
  8
DEFPOINTS
 62
     0
 10
4632.5000000000009095
 20
7197.500000000003638
 30
0.0
  0
POINT
  5
E811
  8
DEFPOINTS
 62
     0
 10
4632.5000000000009095
 20
5517.5000000000009095
 30
0.0
  0
POINT
  5
E812
  8
DEFPOINTS
 62
     0
 10
5000.0000000000145519
 20
5517.5000000000009095
 30
0.0
  0
ENDBLK
  5
D524
  8
0
  0
BLOCK
  8
0
  2
*U38
 70
     1
 10
0.0
 20
0.0
 30
0.0
  3
*U38
  1

  0
TEXT
  5
ED44
  8
0
 62
    10
 10
4985.0000000000127329
 20
6257.1827411167523678
 30
0.0
 40
75.0
  1
1680
 50
90.0
  7
MS_ゴシック
  0
ENDBLK
  5
ED46
  8
0
  0
BLOCK
  8
0
  2
A$CD48D9E45
 70
     0
 10
0.0
 20
0.0
 30
0.0
  3
A$CD48D9E45
  1

  0
LINE
  5
DF9A
  8
0
  6
BYBLOCK
 62
     0
 10
540.0253743278872207
 20
1680.0000000000020464
 30
0.0
 11
748.7911323148103975
 21
0.0000000000002274
 31
0.0
  0
LINE
  5
DF9B
  8
0
  6
BYBLOCK
 62
     0
 10
478.8259314515734104
 20
1680.0
 30
0.0
 11
592.698163080807376
 21
0.0
 31
0.0
  0
LINE
  5
DF9C
  8
0
  6
BYBLOCK
 62
     0
 10
437.3865999999969745
 20
1680.0
 30
0.0
 11
437.3866000000007261
 21
0.0
 31
0.0
  0
LINE
  5
DF9D
  8
0
  6
BYBLOCK
 62
     0
 10
367.3865999999969745
 20
1680.0
 30
0.0
 11
367.3865999999969745
 21
0.0
 31
0.0
  0
LINE
  5
DF9E
  8
0
  6
BYBLOCK
 62
     0
 10
297.3865999999969745
 20
1680.0
 30
0.0
 11
297.3865999999969745
 21
0.0
 31
0.0
  0
LINE
  5
DF9F
  8
0
  6
BYBLOCK
 62
     0
 10
237.3865999999970882
 20
1680.0
 30
0.0
 11
237.3865999999970882
 21
0.0
 31
0.0
  0
LINE
  5
DFA0
  8
0
  6
BYBLOCK
 62
     0
 10
177.3865999999989072
 20
1680.0
 30
0.0
 11
177.3865999999952123
 21
0.0
 31
0.0
  0
LINE
  5
DFA1
  8
0
  6
BYBLOCK
 62
     0
 10
117.3865999999971024
 20
1680.0
 30
0.0
 11
117.3865999999971024
 21
0.0
 31
0.0
  0
LINE
  5
DFA2
  8
0
  6
BYBLOCK
 62
     0
 10
60.0
 20
1680.0
 30
0.0
 11
60.0
 21
0.0
 31
0.0
  0
POLYLINE
  5
DFA3
  8
HOJO
 66
     1
 10
0.0
 20
0.0
 30
0.0
 70
     1
  0
VERTEX
  5
F150
  8
HOJO
 10
940.0
 20
0.0
 30
0.0
  0
VERTEX
  5
F151
  8
HOJO
 10
0.0
 20
0.0
 30
0.0
  0
VERTEX
  5
F152
  8
HOJO
 10
0.0
 20
1680.0
 30
0.0
  0
VERTEX
  5
F153
  8
HOJO
 10
940.0
 20
1680.0
 30
0.0
  0
SEQEND
  5
F154
  8
HOJO
  0
ENDBLK
  5
DF4B
  8
0
  0
BLOCK
  8
0
  2
*D40
 70
     1
 10
0.0
 20
0.0
 30
0.0
  3
*D40
  1

  0
LINE
  5
E813
  8
0
 62
     0
 10
3625.0
 20
4875.0
 30
0.0
 11
3625.0
 21
4679.999999999996362
 31
0.0
  0
LINE
  5
E814
  8
0
 62
     0
 10
4700.0
 20
4875.0
 30
0.0
 11
4700.0
 21
4679.999999999996362
 31
0.0
  0
LINE
  5
E815
  8
0
 62
     0
 10
3685.0
 20
4709.999999999996362
 30
0.0
 11
4640.0
 21
4709.999999999996362
 31
0.0
  0
SOLID
  5
E816
  8
0
 62
     0
 10
3685.0
 20
4719.9999999999972715
 30
0.0
 11
3685.0
 21
4699.999999999996362
 31
0.0
 12
3625.0
 22
4709.999999999996362
 32
0.0
 13
3625.0
 23
4709.999999999996362
 33
0.0
  0
SOLID
  5
E817
  8
0
 62
     0
 10
4640.0
 20
4719.9999999999972715
 30
0.0
 11
4640.0
 21
4699.999999999996362
 31
0.0
 12
4700.0
 22
4709.999999999996362
 32
0.0
 13
4700.0
 23
4709.999999999996362
 33
0.0
  0
INSERT
  5
E818
  8
0
  2
*U41
 10
0.0
 20
0.0
 30
0.0
  0
POINT
  5
E819
  8
DEFPOINTS
 62
     0
 10
3625.0
 20
4950.0
 30
0.0
  0
POINT
  5
E81A
  8
DEFPOINTS
 62
     0
 10
4700.0
 20
4950.0
 30
0.0
  0
POINT
  5
E81B
  8
DEFPOINTS
 62
     0
 10
4700.0
 20
4709.999999999996362
 30
0.0
  0
ENDBLK
  5
DFD4
  8
0
  0
BLOCK
  8
0
  2
*U41
 70
     1
 10
0.0
 20
0.0
 30
0.0
  3
*U41
  1

  0
TEXT
  5
ED48
  8
0
 10
4063.1345177664970834
 20
4724.999999999996362
 30
0.0
 40
75.0
  1
1075
  7
MS_ゴシック
  0
ENDBLK
  5
ED4A
  8
0
  0
BLOCK
  8
0
  2
*D42
 70
     1
 10
0.0
 20
0.0
 30
0.0
  3
*D42
  1

  0
LINE
  5
E81C
  8
0
 62
     0
 10
4707.5000000000009095
 20
5047.5000000000009095
 30
0.0
 11
5030.0000000000181899
 21
5047.5000000000009095
 31
0.0
  0
LINE
  5
E81D
  8
0
 62
     0
 10
4707.5000000000009095
 20
5397.5
 30
0.0
 11
5030.0000000000181899
 21
5397.5
 31
0.0
  0
LINE
  5
E81E
  8
0
 62
     0
 10
5000.0000000000181899
 20
5047.5000000000009095
 30
0.0
 11
5000.0000000000181899
 21
5397.5
 31
0.0
  0
INSERT
  5
E81F
  8
0
 62
     0
  2
_OBLIQUE
 10
5000.0000000000181899
 20
5047.5000000000009095
 30
0.0
 41
60.0
 42
60.0
 43
60.0
 50
270.0
  0
INSERT
  5
E820
  8
0
 62
     0
  2
_OBLIQUE
 10
5000.0000000000181899
 20
5397.5
 30
0.0
 41
60.0
 42
60.0
 43
60.0
 50
90.0
  0
INSERT
  5
E821
  8
0
  2
*U43
 10
0.0
 20
0.0
 30
0.0
  0
POINT
  5
E822
  8
DEFPOINTS
 62
     0
 10
4632.5000000000009095
 20
5047.5000000000009095
 30
0.0
  0
POINT
  5
E823
  8
DEFPOINTS
 62
     0
 10
4632.5000000000009095
 20
5397.5
 30
0.0
  0
POINT
  5
E824
  8
DEFPOINTS
 62
     0
 10
5000.0000000000181899
 20
5397.5
 30
0.0
  0
ENDBLK
  5
E024
  8
0
  0
BLOCK
  8
0
  2
*U43
 70
     1
 10
0.0
 20
0.0
 30
0.0
  3
*U43
  1

  0
TEXT
  5
ED4C
  8
0
 62
    10
 10
4985.0000000000181899
 20
5149.213197969544126
 30
0.0
 40
75.0
  1
350
 50
90.0
  7
MS_ゴシック
  0
ENDBLK
  5
ED4E
  8
0
  0
BLOCK
  8
0
  2
*D44
 70
     1
 10
0.0
 20
0.0
 30
0.0
  3
*D44
  1

  0
LINE
  5
E60D
  8
0
 62
     0
 10
1662.4999999999920419
 20
7173.0000000831223588
 30
0.0
 11
1617.5000000000050022
 21
7173.0000000831223588
 31
0.0
  0
LINE
  5
E60E
  8
0
 62
     0
 10
1662.4999999999929514
 20
7103.0000000050622475
 30
0.0
 11
1617.5000000000050022
 21
7103.0000000050622475
 31
0.0
  0
LINE
  5
E60F
  8
0
 62
     0
 10
1587.5000000000040927
 20
7233.0000000831223588
 30
0.0
 11
1587.5000000000040927
 21
7293.0000000831223588
 31
0.0
  0
LINE
  5
E610
  8
0
 62
     0
 10
1587.5000000000040927
 20
7043.000000005061338
 30
0.0
 11
1587.5000000000040927
 21
6983.0000000050622475
 31
0.0
  0
INSERT
  5
E611
  8
0
  2
*U45
 10
0.0
 20
0.0
 30
0.0
  0
LINE
  5
E612
  8
0
 62
     0
 10
1587.5000000000040927
 20
7173.0000000831223588
 30
0.0
 11
1587.5000000000040927
 21
7103.0000000050622475
 31
0.0
  0
SOLID
  5
E613
  8
0
 62
     0
 10
1577.5000000000050022
 20
7233.0000000831223588
 30
0.0
 11
1597.5000000000050022
 21
7233.0000000831223588
 31
0.0
 12
1587.5000000000040927
 22
7173.0000000831223588
 32
0.0
 13
1587.5000000000040927
 23
7173.0000000831223588
 33
0.0
  0
SOLID
  5
E614
  8
0
 62
     0
 10
1577.5000000000050022
 20
7043.000000005061338
 30
0.0
 11
1597.5000000000050022
 21
7043.000000005061338
 31
0.0
 12
1587.5000000000040927
 22
7103.0000000050622475
 32
0.0
 13
1587.5000000000040927
 23
7103.0000000050622475
 33
0.0
  0
POINT
  5
E615
  8
DEFPOINTS
 62
     0
 10
1587.4999999999920419
 20
7173.0000000831223588
 30
0.0
  0
POINT
  5
E616
  8
DEFPOINTS
 62
     0
 10
1587.4999999999929514
 20
7103.0000000050622475
 30
0.0
  0
POINT
  5
E617
  8
DEFPOINTS
 62
     0
 10
1587.5000000000040927
 20
7103.0000000050622475
 30
0.0
  0
ENDBLK
  5
E15D
  8
0
  0
BLOCK
  8
0
  2
*U45
 70
     1
 10
0.0
 20
0.0
 30
0.0
  3
*U45
  1

  0
TEXT
  5
EC1C
  8
0
 10
1572.4999999999920419
 20
7243.1269036364192289
 30
0.0
 40
75.0
  1
70
 50
90.0
  7
MS_ゴシック
  0
ENDBLK
  5
EC1E
  8
0
  0
BLOCK
  8
0
  2
*D46
 70
     1
 10
0.0
 20
0.0
 30
0.0
  3
*D46
  1

  0
LINE
  5
E618
  8
0
 62
     0
 10
1044.9999999999909051
 20
7185.500000005055881
 30
0.0
 11
1044.9999999999909051
 21
7590.5000000050358722
 31
0.0
  0
LINE
  5
E619
  8
0
 62
     0
 10
1049.9999999999899956
 20
7185.500000005055881
 30
0.0
 11
1049.9999999999899956
 21
7590.5000000050358722
 31
0.0
  0
LINE
  5
E61A
  8
0
 62
     0
 10
984.9999999999904503
 20
7560.5000000050367817
 30
0.0
 11
924.9999999999904503
 21
7560.5000000050367817
 31
0.0
  0
LINE
  5
E61B
  8
0
 62
     0
 10
1109.9999999999899956
 20
7560.5000000050367817
 30
0.0
 11
1169.9999999999909051
 21
7560.5000000050367817
 31
0.0
  0
INSERT
  5
E61C
  8
0
  2
*U47
 10
0.0
 20
0.0
 30
0.0
  0
LINE
  5
E61D
  8
0
 62
     0
 10
1044.9999999999909051
 20
7560.5000000050367817
 30
0.0
 11
1049.9999999999899956
 21
7560.5000000050367817
 31
0.0
  0
SOLID
  5
E61E
  8
0
 62
     0
 10
984.9999999999904503
 20
7570.5000000050367817
 30
0.0
 11
984.9999999999904503
 21
7550.5000000050367817
 31
0.0
 12
1044.9999999999909051
 22
7560.5000000050367817
 32
0.0
 13
1044.9999999999909051
 23
7560.5000000050367817
 33
0.0
  0
SOLID
  5
E61F
  8
0
 62
     0
 10
1109.9999999999899956
 20
7570.5000000050367817
 30
0.0
 11
1109.9999999999899956
 21
7550.5000000050367817
 31
0.0
 12
1049.9999999999899956
 22
7560.5000000050367817
 32
0.0
 13
1049.9999999999899956
 23
7560.5000000050367817
 33
0.0
  0
POINT
  5
E620
  8
DEFPOINTS
 62
     0
 10
1044.9999999999909051
 20
7110.5000000050577
 30
0.0
  0
POINT
  5
E621
  8
DEFPOINTS
 62
     0
 10
1049.9999999999899956
 20
7110.5000000050577
 30
0.0
  0
POINT
  5
E622
  8
DEFPOINTS
 62
     0
 10
1049.9999999999899956
 20
7560.5000000050367817
 30
0.0
  0
ENDBLK
  5
E16B
  8
0
  0
BLOCK
  8
0
  2
*U47
 70
     1
 10
0.0
 20
0.0
 30
0.0
  3
*U47
  1

  0
TEXT
  5
EC20
  8
0
 10
901.3959390862848977
 20
7575.5000000050367817
 30
0.0
 40
75.0
  1
5
  7
MS_ゴシック
  0
ENDBLK
  5
EC22
  8
0
  0
BLOCK
  8
0
  2
*D48
 70
     1
 10
0.0
 20
0.0
 30
0.0
  3
*D48
  1

  0
LINE
  5
E623
  8
0
 62
     0
 10
2124.9999999999931788
 20
7185.500000005055881
 30
0.0
 11
2124.9999999999931788
 21
7590.5000000050358722
 31
0.0
  0
LINE
  5
E624
  8
0
 62
     0
 10
1049.9999999999940883
 20
7185.500000005055881
 30
0.0
 11
1049.9999999999940883
 21
7590.5000000050358722
 31
0.0
  0
LINE
  5
E625
  8
0
 62
     0
 10
2064.9999999999931788
 20
7560.5000000050367817
 30
0.0
 11
1109.9999999999940883
 21
7560.5000000050367817
 31
0.0
  0
SOLID
  5
E626
  8
0
 62
     0
 10
2064.9999999999931788
 20
7570.5000000050367817
 30
0.0
 11
2064.9999999999931788
 21
7550.5000000050367817
 31
0.0
 12
2124.9999999999931788
 22
7560.5000000050367817
 32
0.0
 13
2124.9999999999931788
 23
7560.5000000050367817
 33
0.0
  0
SOLID
  5
E627
  8
0
 62
     0
 10
1109.9999999999940883
 20
7570.5000000050367817
 30
0.0
 11
1109.9999999999940883
 21
7550.5000000050367817
 31
0.0
 12
1049.9999999999940883
 22
7560.5000000050367817
 32
0.0
 13
1049.9999999999940883
 23
7560.5000000050367817
 33
0.0
  0
INSERT
  5
E628
  8
0
  2
*U49
 10
0.0
 20
0.0
 30
0.0
  0
POINT
  5
E629
  8
DEFPOINTS
 62
     0
 10
2124.9999999999931788
 20
7110.5000000050577
 30
0.0
  0
POINT
  5
E62A
  8
DEFPOINTS
 62
     0
 10
1049.9999999999940883
 20
7110.5000000050577
 30
0.0
  0
POINT
  5
E62B
  8
DEFPOINTS
 62
     0
 10
1049.9999999999940883
 20
7560.5000000050367817
 30
0.0
  0
ENDBLK
  5
E179
  8
0
  0
BLOCK
  8
0
  2
*U49
 70
     1
 10
0.0
 20
0.0
 30
0.0
  3
*U49
  1

  0
TEXT
  5
EC24
  8
0
 10
1488.1345177664909443
 20
7575.5000000050367817
 30
0.0
 40
75.0
  1
1075
  7
MS_ゴシック
  0
ENDBLK
  5
EC26
  8
0
  0
BLOCK
  8
0
  2
*D50
 70
     1
 10
0.0
 20
0.0
 30
0.0
  3
*D50
  1

  0
LINE
  5
E5F9
  8
0
 62
     0
 10
975.0000000000001137
 20
4980.0000000000009095
 30
0.0
 11
719.9999997434948682
 21
4980.0000000000009095
 31
0.0
  0
LINE
  5
E5FA
  8
0
 62
     0
 10
974.9999999999874944
 20
7110.5000000050604285
 30
0.0
 11
719.9999997434945271
 21
7110.5000000050604285
 31
0.0
  0
LINE
  5
E5FB
  8
0
 62
     0
 10
749.9999997434946408
 20
5040.0000000000009095
 30
0.0
 11
749.9999997434945271
 21
7050.5000000050622475
 31
0.0
  0
SOLID
  5
E5FC
  8
0
 62
     0
 10
739.9999997434946408
 20
5040.0000000000009095
 30
0.0
 11
759.9999997434950956
 21
5040.0000000000009095
 31
0.0
 12
749.9999997434946408
 22
4980.0000000000009095
 32
0.0
 13
749.9999997434946408
 23
4980.0000000000009095
 33
0.0
  0
SOLID
  5
E5FD
  8
0
 62
     0
 10
739.9999997434945271
 20
7050.5000000050622475
 30
0.0
 11
759.9999997434945271
 21
7050.5000000050622475
 31
0.0
 12
749.9999997434945271
 22
7110.5000000050604285
 32
0.0
 13
749.9999997434945271
 23
7110.5000000050604285
 33
0.0
  0
INSERT
  5
E5FE
  8
0
  2
*U51
 10
0.0
 20
0.0
 30
0.0
  0
POINT
  5
E5FF
  8
DEFPOINTS
 62
     0
 10
1050.0
 20
4980.0000000000009095
 30
0.0
  0
POINT
  5
E600
  8
DEFPOINTS
 62
     0
 10
1049.9999999999870397
 20
7110.5000000050604285
 30
0.0
  0
POINT
  5
E601
  8
DEFPOINTS
 62
     0
 10
749.9999997434945271
 20
7110.5000000050604285
 30
0.0
  0
ENDBLK
  5
E185
  8
0
  0
BLOCK
  8
0
  2
*U51
 70
     1
 10
0.0
 20
0.0
 30
0.0
  3
*U51
  1

  0
TEXT
  5
EC14
  8
0
 10
734.9999997434963461
 20
5899.6281725913631817
 30
0.0
 40
75.0
  1
2130.5
 50
90.0
  7
MS_ゴシック
  0
ENDBLK
  5
EC16
  8
0
  0
BLOCK
  8
0
  2
*D52
 70
     1
 10
0.0
 20
0.0
 30
0.0
  3
*D52
  1

  0
LINE
  5
E602
  8
0
 62
     0
 10
974.9999999999912461
 20
7173.0000000831223588
 30
0.0
 11
719.9999997434942998
 21
7173.0000000831223588
 31
0.0
  0
LINE
  5
E603
  8
0
 62
     0
 10
974.9999999999874944
 20
7110.5000000050604285
 30
0.0
 11
719.9999997434942998
 21
7110.5000000050604285
 31
0.0
  0
LINE
  5
E604
  8
0
 62
     0
 10
749.9999997434942998
 20
7233.0000000831223588
 30
0.0
 11
749.9999997434942998
 21
7293.0000000831223588
 31
0.0
  0
LINE
  5
E605
  8
0
 62
     0
 10
749.9999997434942998
 20
7050.5000000050622475
 30
0.0
 11
749.9999997434942998
 21
6990.5000000050622475
 31
0.0
  0
INSERT
  5
E606
  8
0
  2
*U53
 10
0.0
 20
0.0
 30
0.0
  0
LINE
  5
E607
  8
0
 62
     0
 10
749.9999997434942998
 20
7173.0000000831223588
 30
0.0
 11
749.9999997434942998
 21
7110.5000000050604285
 31
0.0
  0
SOLID
  5
E608
  8
0
 62
     0
 10
739.9999997434940724
 20
7233.0000000831223588
 30
0.0
 11
759.9999997434942998
 21
7233.0000000831223588
 31
0.0
 12
749.9999997434942998
 22
7173.0000000831223588
 32
0.0
 13
749.9999997434942998
 23
7173.0000000831223588
 33
0.0
  0
SOLID
  5
E609
  8
0
 62
     0
 10
739.9999997434940724
 20
7050.5000000050622475
 30
0.0
 11
759.9999997434942998
 21
7050.5000000050622475
 31
0.0
 12
749.9999997434942998
 22
7110.5000000050604285
 32
0.0
 13
749.9999997434942998
 23
7110.5000000050604285
 33
0.0
  0
POINT
  5
E60A
  8
DEFPOINTS
 62
     0
 10
1049.9999999999899956
 20
7173.0000000831223588
 30
0.0
  0
POINT
  5
E60B
  8
DEFPOINTS
 62
     0
 10
1049.9999999999870397
 20
7110.5000000050604285
 30
0.0
  0
POINT
  5
E60C
  8
DEFPOINTS
 62
     0
 10
749.9999997434942998
 20
7110.5000000050604285
 30
0.0
  0
ENDBLK
  5
E191
  8
0
  0
BLOCK
  8
0
  2
*U53
 70
     1
 10
0.0
 20
0.0
 30
0.0
  3
*U53
  1

  0
TEXT
  5
EC18
  8
0
 10
734.9999997434878196
 20
7225.7229882392211948
 30
0.0
 40
75.0
  1
62.5
 50
90.0
  7
MS_ゴシック
  0
ENDBLK
  5
EC1A
  8
0
  0
BLOCK
  8
0
  2
*D54
 70
     1
 10
0.0
 20
0.0
 30
0.0
  3
*D54
  1

  0
LINE
  5
E84C
  8
0
 62
     0
 10
5842.5000000000009095
 20
3192.5000000000009095
 30
0.0
 11
5842.5000000000009095
 21
3515.0000000000009095
 31
0.0
  0
LINE
  5
E84D
  8
0
 62
     0
 10
6782.5
 20
3192.5000000000009095
 30
0.0
 11
6782.5
 21
3515.0000000000009095
 31
0.0
  0
LINE
  5
E84E
  8
0
 62
     0
 10
5842.5000000000009095
 20
3485.0000000000009095
 30
0.0
 11
6782.5
 21
3485.0000000000009095
 31
0.0
  0
INSERT
  5
E84F
  8
0
 62
     0
  2
_OBLIQUE
 10
5842.5000000000009095
 20
3485.0000000000009095
 30
0.0
 41
60.0
 42
60.0
 43
60.0
 50
180.0
  0
INSERT
  5
E850
  8
0
 62
     0
  2
_OBLIQUE
 10
6782.5
 20
3485.0000000000009095
 30
0.0
 41
60.0
 42
60.0
 43
60.0
  0
INSERT
  5
E851
  8
0
  2
*U55
 10
0.0
 20
0.0
 30
0.0
  0
POINT
  5
E852
  8
DEFPOINTS
 62
     0
 10
5842.5000000000009095
 20
3117.5000000000009095
 30
0.0
  0
POINT
  5
E853
  8
DEFPOINTS
 62
     0
 10
6782.5
 20
3117.5000000000009095
 30
0.0
  0
POINT
  5
E854
  8
DEFPOINTS
 62
     0
 10
6782.5
 20
3485.0000000000009095
 30
0.0
  0
ENDBLK
  5
E1F4
  8
0
  0
BLOCK
  8
0
  2
*U55
 70
     1
 10
0.0
 20
0.0
 30
0.0
  3
*U55
  1

  0
TEXT
  5
ED60
  8
0
 62
    10
 10
6238.8324873096471492
 20
3500.0000000000009095
 30
0.0
 40
75.0
  1
940
  7
MS_ゴシック
  0
ENDBLK
  5
ED62
  8
0
  0
BLOCK
  8
0
  2
*D56
 70
     1
 10
0.0
 20
0.0
 30
0.0
  3
*D56
  1

  0
LINE
  5
E855
  8
0
 62
     0
 10
6857.5000000000009095
 20
3117.5000000000009095
 30
0.0
 11
7180.0000000000291038
 21
3117.5000000000031832
 31
0.0
  0
LINE
  5
E856
  8
0
 62
     0
 10
6857.5000000000009095
 20
1437.5000000000009095
 30
0.0
 11
7180.0000000000309228
 21
1437.5000000000009095
 31
0.0
  0
LINE
  5
E857
  8
0
 62
     0
 10
7150.0000000000309228
 20
3117.5000000000009095
 30
0.0
 11
7150.0000000000309228
 21
1437.5000000000009095
 31
0.0
  0
INSERT
  5
E858
  8
0
 62
     0
  2
_OBLIQUE
 10
7150.0000000000309228
 20
3117.5000000000009095
 30
0.0
 41
60.0
 42
60.0
 43
60.0
 50
90.0
  0
INSERT
  5
E859
  8
0
 62
     0
  2
_OBLIQUE
 10
7150.0000000000309228
 20
1437.5000000000009095
 30
0.0
 41
60.0
 42
60.0
 43
60.0
 50
270.0
  0
INSERT
  5
E85A
  8
0
  2
*U57
 10
0.0
 20
0.0
 30
0.0
  0
POINT
  5
E85B
  8
DEFPOINTS
 62
     0
 10
6782.500000000001819
 20
3117.5000000000009095
 30
0.0
  0
POINT
  5
E85C
  8
DEFPOINTS
 62
     0
 10
6782.500000000001819
 20
1437.5000000000009095
 30
0.0
  0
POINT
  5
E85D
  8
DEFPOINTS
 62
     0
 10
7150.0000000000309228
 20
1437.5000000000009095
 30
0.0
  0
ENDBLK
  5
E200
  8
0
  0
BLOCK
  8
0
  2
*U57
 70
     1
 10
0.0
 20
0.0
 30
0.0
  3
*U57
  1

  0
TEXT
  5
ED64
  8
0
 62
    10
 10
7135.0000000000291038
 20
2177.1827411167519131
 30
0.0
 40
75.0
  1
1680
 50
90.0
  7
MS_ゴシック
  0
ENDBLK
  5
ED66
  8
0
  0
BLOCK
  8
0
  2
*D58
 70
     1
 10
0.0
 20
0.0
 30
0.0
  3
*D58
  1

  0
LINE
  5
E85E
  8
0
 62
     0
 10
6857.5000000000009095
 20
967.5000000000006821
 30
0.0
 11
7180.0000000000345608
 21
967.5000000000006821
 31
0.0
  0
LINE
  5
E85F
  8
0
 62
     0
 10
6857.5000000000009095
 20
1317.5000000000009095
 30
0.0
 11
7180.0000000000345608
 21
1317.5000000000009095
 31
0.0
  0
LINE
  5
E860
  8
0
 62
     0
 10
7150.0000000000327418
 20
967.5000000000006821
 30
0.0
 11
7150.0000000000327418
 21
1317.5000000000009095
 31
0.0
  0
INSERT
  5
E861
  8
0
 62
     0
  2
_OBLIQUE
 10
7150.0000000000327418
 20
967.5000000000006821
 30
0.0
 41
60.0
 42
60.0
 43
60.0
 50
270.0
  0
INSERT
  5
E862
  8
0
 62
     0
  2
_OBLIQUE
 10
7150.0000000000327418
 20
1317.5000000000009095
 30
0.0
 41
60.0
 42
60.0
 43
60.0
 50
90.0
  0
INSERT
  5
E863
  8
0
  2
*U59
 10
0.0
 20
0.0
 30
0.0
  0
POINT
  5
E864
  8
DEFPOINTS
 62
     0
 10
6782.500000000001819
 20
967.5000000000006821
 30
0.0
  0
POINT
  5
E865
  8
DEFPOINTS
 62
     0
 10
6782.500000000001819
 20
1317.5000000000009095
 30
0.0
  0
POINT
  5
E866
  8
DEFPOINTS
 62
     0
 10
7150.0000000000327418
 20
1317.5000000000009095
 30
0.0
  0
ENDBLK
  5
E20C
  8
0
  0
BLOCK
  8
0
  2
*U59
 70
     1
 10
0.0
 20
0.0
 30
0.0
  3
*U59
  1

  0
TEXT
  5
ED68
  8
0
 62
    10
 10
7135.0000000000327418
 20
1069.2131979695409427
 30
0.0
 40
75.0
  1
350
 50
90.0
  7
MS_ゴシック
  0
ENDBLK
  5
ED6A
  8
0
  0
BLOCK
  8
0
  2
*D60
 70
     1
 10
0.0
 20
0.0
 30
0.0
  3
*D60
  1

  0
LINE
  5
E871
  8
0
 62
     0
 10
8350.0
 20
825.0000000000001137
 30
0.0
 11
8350.0
 21
600.0000000000005684
 31
0.0
  0
LINE
  5
E872
  8
0
 62
     0
 10
10480.5
 20
825.0000000000001137
 30
0.0
 11
10480.5
 21
600.0000000000005684
 31
0.0
  0
LINE
  5
E873
  8
0
 62
     0
 10
8410.0
 20
630.0000000000005684
 30
0.0
 11
10420.5
 21
630.0000000000005684
 31
0.0
  0
SOLID
  5
E874
  8
0
 62
     0
 10
8410.0
 20
640.0000000000004547
 30
0.0
 11
8410.0
 21
620.0000000000004547
 31
0.0
 12
8350.0
 22
630.0000000000005684
 32
0.0
 13
8350.0
 23
630.0000000000005684
 33
0.0
  0
SOLID
  5
E875
  8
0
 62
     0
 10
10420.5
 20
640.0000000000004547
 30
0.0
 11
10420.5
 21
620.0000000000004547
 31
0.0
 12
10480.5
 22
630.0000000000005684
 32
0.0
 13
10480.5
 23
630.0000000000005684
 33
0.0
  0
INSERT
  5
E876
  8
0
  2
*U61
 10
0.0
 20
0.0
 30
0.0
  0
POINT
  5
E877
  8
DEFPOINTS
 62
     0
 10
8350.0
 20
900.0000000000001137
 30
0.0
  0
POINT
  5
E878
  8
DEFPOINTS
 62
     0
 10
10480.5
 20
900.0000000000001137
 30
0.0
  0
POINT
  5
E879
  8
DEFPOINTS
 62
     0
 10
10480.5
 20
630.0000000000005684
 30
0.0
  0
ENDBLK
  5
E68D
  8
0
  0
BLOCK
  8
0
  2
*U61
 70
     1
 10
0.0
 20
0.0
 30
0.0
  3
*U61
  1

  0
TEXT
  5
ED71
  8
0
 10
9269.6281725888311485
 20
645.0000000000004547
 30
0.0
 40
75.0
  1
2130.5
  7
MS_ゴシック
  0
ENDBLK
  5
ED73
  8
0
  0
BLOCK
  8
0
  2
PLOT-ST1_P
 70
     0
 10
0.0
 20
0.0
 30
0.0
  3
PLOT-ST1_P
  1

  0
POLYLINE
  5
E6F0
  8
HOJO
 66
     1
 10
0.0
 20
0.0
 30
0.0
 70
     1
  0
VERTEX
  5
F25C
  8
HOJO
 10
1037.5
 20
-2097.5
 30
0.0
  0
VERTEX
  5
F25D
  8
HOJO
 10
1037.5
 20
-1097.5
 30
0.0
  0
VERTEX
  5
F25E
  8
HOJO
 10
37.5
 20
-1097.5
 30
0.0
  0
VERTEX
  5
F25F
  8
HOJO
 10
37.5
 20
-2097.5
 30
0.0
  0
SEQEND
  5
F260
  8
HOJO
  0
POLYLINE
  5
E6F1
  8
HOJO
 66
     1
 10
0.0
 20
0.0
 30
0.0
 70
     1
  0
VERTEX
  5
F261
  8
HOJO
 10
1037.4999999999959073
 20
-1037.5000000050529252
 30
0.0
  0
VERTEX
  5
F262
  8
HOJO
 10
1037.4999999999959073
 20
-37.5000000050531526
 30
0.0
  0
VERTEX
  5
F263
  8
HOJO
 10
37.499999999996362
 20
-37.5000000050531526
 30
0.0
  0
VERTEX
  5
F264
  8
HOJO
 10
37.499999999996362
 20
-1037.5000000050529252
 30
0.0
  0
SEQEND
  5
F265
  8
HOJO
  0
LINE
  5
E6F2
  8
0
 10
37.5
 20
-2067.500000005055881
 30
0.0
 11
37.5
 21
-150.0
 31
0.0
  0
LINE
  5
E6F3
  8
0
 10
7.5
 20
-2067.500000005055881
 30
0.0
 11
7.5
 21
-150.0
 31
0.0
  0
LINE
  5
E6F4
  8
0
 10
925.0
 20
-37.4999999999981668
 30
0.0
 11
150.0
 21
-37.5000000000009095
 31
0.0
  0
LINE
  5
E6F5
  8
0
 10
925.0
 20
-7.499999999998181
 30
0.0
 11
150.0
 21
-7.5000000000009077
 31
0.0
  0
LINE
  5
E6F6
  8
0
 10
1067.5
 20
-2067.500000005055881
 30
0.0
 11
1067.5
 21
-150.0
 31
0.0
  0
LINE
  5
E6F7
  8
0
 10
1037.5
 20
-2067.500000005055881
 30
0.0
 11
1037.5
 21
-150.0
 31
0.0
  0
LINE
  5
E6F8
  8
0
 10
1007.4999999999929514
 20
-2127.4999999999990905
 30
0.0
 11
67.5
 21
-2127.5000000000031832
 31
0.0
  0
LINE
  5
E6F9
  8
0
 10
1007.4999999999929514
 20
-2097.5
 30
0.0
 11
67.5
 21
-2097.5000000000031832
 31
0.0
  0
LINE
  5
E6FA
  8
0
 10
1037.4999999999959073
 20
-1097.5000000050529252
 30
0.0
 11
37.499999999996362
 21
-1097.5000000050570179
 31
0.0
  0
LINE
  5
E6FB
  8
0
 10
1037.4999999999959073
 20
-1037.5000000050529252
 30
0.0
 11
37.499999999996362
 21
-1037.5000000050561084
 31
0.0
  0
POLYLINE
  5
E6FC
  8
0
 66
     1
 10
0.0
 20
0.0
 30
0.0
 70
     1
  0
VERTEX
  5
F266
  8
0
 10
925.0
 20
-67.5
 30
0.0
  0
VERTEX
  5
F267
  8
0
 10
925.0
 20
0.0
 30
0.0
  0
VERTEX
  5
F268
  8
0
 10
1075.0
 20
0.0
 30
0.0
  0
VERTEX
  5
F269
  8
0
 10
1075.0
 20
-150.0
 30
0.0
  0
VERTEX
  5
F26A
  8
0
 10
1007.499999999968054
 20
-150.0
 30
0.0
  0
VERTEX
  5
F26B
  8
0
 10
925.0
 20
-67.5
 30
0.0
  0
SEQEND
  5
F26C
  8
0
  0
POLYLINE
  5
E6FD
  8
0
 66
     1
 10
0.0
 20
0.0
 30
0.0
 70
     1
  0
VERTEX
  5
F26D
  8
0
 10
150.0
 20
-67.5
 30
0.0
  0
VERTEX
  5
F26E
  8
0
 10
150.0
 20
0.0
 30
0.0
  0
VERTEX
  5
F26F
  8
0
 10
0.0
 20
0.0
 30
0.0
  0
VERTEX
  5
F270
  8
0
 10
0.0
 20
-150.0
 30
0.0
  0
VERTEX
  5
F271
  8
0
 10
67.5000000000318323
 20
-150.0
 30
0.0
  0
VERTEX
  5
F272
  8
0
 10
150.0
 20
-67.5
 30
0.0
  0
SEQEND
  5
F273
  8
0
  0
POLYLINE
  5
E6FE
  8
0
 66
     1
 10
0.0
 20
0.0
 30
0.0
 70
     1
  0
VERTEX
  5
F274
  8
0
 10
1074.9999999999929514
 20
-1097.5000000050570179
 30
0.0
  0
VERTEX
  5
F275
  8
0
 10
1074.9999999999929514
 20
-1037.5000000050561084
 30
0.0
  0
VERTEX
  5
F276
  8
0
 10
1007.4999999999929514
 20
-1037.5000000050561084
 30
0.0
  0
VERTEX
  5
F277
  8
0
 10
1007.4999999999929514
 20
-1097.5000000050570179
 30
0.0
  0
SEQEND
  5
F278
  8
0
  0
POLYLINE
  5
E6FF
  8
0
 66
     1
 10
0.0
 20
0.0
 30
0.0
 70
     1
  0
VERTEX
  5
F279
  8
0
 10
0.0
 20
-1097.5000000050570179
 30
0.0
  0
VERTEX
  5
F27A
  8
0
 10
0.0
 20
-1037.5000000050561084
 30
0.0
  0
VERTEX
  5
F27B
  8
0
 10
67.5
 20
-1037.5000000050561084
 30
0.0
  0
VERTEX
  5
F27C
  8
0
 10
67.5
 20
-1097.5000000050570179
 30
0.0
  0
SEQEND
  5
F27D
  8
0
  0
POLYLINE
  5
E700
  8
0
 66
     1
 10
0.0
 20
0.0
 30
0.0
 70
     1
  0
VERTEX
  5
F27E
  8
0
 10
1074.9999999999929514
 20
-2127.500000005055881
 30
0.0
  0
VERTEX
  5
F27F
  8
0
 10
1074.9999999999929514
 20
-2067.500000005055881
 30
0.0
  0
VERTEX
  5
F280
  8
0
 10
1007.4999999999929514
 20
-2067.500000005055881
 30
0.0
  0
VERTEX
  5
F281
  8
0
 10
1007.4999999999929514
 20
-2127.500000005055881
 30
0.0
  0
SEQEND
  5
F282
  8
0
  0
POLYLINE
  5
E701
  8
0
 66
     1
 10
0.0
 20
0.0
 30
0.0
 70
     1
  0
VERTEX
  5
F283
  8
0
 10
0.0
 20
-2127.500000005055881
 30
0.0
  0
VERTEX
  5
F284
  8
0
 10
0.0
 20
-2067.500000005055881
 30
0.0
  0
VERTEX
  5
F285
  8
0
 10
67.5
 20
-2067.500000005055881
 30
0.0
  0
VERTEX
  5
F286
  8
0
 10
67.5
 20
-2127.500000005055881
 30
0.0
  0
SEQEND
  5
F287
  8
0
  0
POLYLINE
  5
E702
  8
0
 66
     1
 10
0.0
 20
0.0
 30
0.0
  0
VERTEX
  5
F288
  8
0
 10
1074.9999999999929514
 20
-2127.500000005055881
 30
0.0
  0
VERTEX
  5
F289
  8
0
 10
1074.9999999999929514
 20
-2130.500000005055881
 30
0.0
  0
VERTEX
  5
F28A
  8
0
 10
1007.4999999999929514
 20
-2130.500000005055881
 30
0.0
  0
VERTEX
  5
F28B
  8
0
 10
1007.4999999999929514
 20
-2127.4999999999990905
 30
0.0
  0
SEQEND
  5
F28C
  8
0
  0
POLYLINE
  5
E703
  8
0
 66
     1
 10
0.0
 20
0.0
 30
0.0
  0
VERTEX
  5
F28D
  8
0
 10
0.000000000007276
 20
-2127.500000005055881
 30
0.0
  0
VERTEX
  5
F28E
  8
0
 10
0.000000000007276
 20
-2130.500000005055881
 30
0.0
  0
VERTEX
  5
F28F
  8
0
 10
67.500000000007276
 20
-2130.500000005055881
 30
0.0
  0
VERTEX
  5
F290
  8
0
 10
67.500000000007276
 20
-2127.4999999999990905
 30
0.0
  0
SEQEND
  5
F291
  8
0
  0
ENDBLK
  5
E6EF
  8
0
  0
BLOCK
  8
0
  2
PLOT-ST1_F
 70
     0
 10
0.0
 20
0.0
 30
0.0
  3
PLOT-ST1_F
  1

  0
LINE
  5
E720
  8
0
 10
67.5
 20
7.5
 30
0.0
 11
1007.5
 21
7.5
 31
0.0
  0
LINE
  5
E721
  8
0
 10
67.5
 20
2217.5
 30
0.0
 11
1007.5
 21
2217.5
 31
0.0
  0
LINE
  5
E722
  8
0
 10
67.5
 20
2277.5
 30
0.0
 11
1007.5
 21
2277.5
 31
0.0
  0
LINE
  5
E723
  8
0
 10
67.5
 20
67.5
 30
0.0
 11
1007.5
 21
67.5
 31
0.0
  0
LINE
  5
E724
  8
0
 10
67.5
 20
417.4999999999998863
 30
0.0
 11
1007.5
 21
417.4999999999998863
 31
0.0
  0
LINE
  5
E725
  8
0
 10
67.5
 20
477.5
 30
0.0
 11
1007.5
 21
477.5
 31
0.0
  0
LINE
  5
E726
  8
0
 10
67.5
 20
537.5
 30
0.0
 11
1007.5
 21
537.5
 31
0.0
  0
POLYLINE
  5
E727
  8
0
 66
     1
 10
0.0
 20
0.0
 30
0.0
 70
     1
1001
ACDBBLOCKREPETAG
1070
     1
1071
        0
1005
E727
  0
VERTEX
  5
F292
  8
0
 10
0.0
 20
0.0
 30
0.0
  0
VERTEX
  5
F293
  8
0
 10
67.5
 20
0.0
 30
0.0
  0
VERTEX
  5
F294
  8
0
 10
67.5
 20
2285.0
 30
0.0
  0
VERTEX
  5
F295
  8
0
 10
0.0
 20
2285.0
 30
0.0
  0
SEQEND
  5
F296
  8
0
  0
POLYLINE
  5
E728
  8
0
 66
     1
 10
0.0
 20
0.0
 30
0.0
 70
     1
1001
ACDBBLOCKREPETAG
1070
     1
1071
        0
1005
E728
  0
VERTEX
  5
F297
  8
0
 10
1007.5
 20
0.0
 30
0.0
  0
VERTEX
  5
F298
  8
0
 10
1075.0
 20
0.0
 30
0.0
  0
VERTEX
  5
F299
  8
0
 10
1075.0
 20
2285.0
 30
0.0
  0
VERTEX
  5
F29A
  8
0
 10
1007.5
 20
2285.0
 30
0.0
  0
SEQEND
  5
F29B
  8
0
  0
ENDBLK
  5
E71F
  8
0
  0
BLOCK
  8
0
  2
PLOT-ST1_S
 70
     0
 10
0.0
 20
0.0
 30
0.0
  3
PLOT-ST1_S
  1

  0
POLYLINE
  5
E939
  8
HOJO
 66
     1
 10
0.0
 20
0.0
 30
0.0
 70
     1
  0
VERTEX
  5
F319
  8
HOJO
 10
-2097.5
 20
67.5
 30
0.0
  0
VERTEX
  5
F31A
  8
HOJO
 10
-1097.5
 20
67.5
 30
0.0
  0
VERTEX
  5
F31B
  8
HOJO
 10
-1097.5
 20
2217.5
 30
0.0
  0
VERTEX
  5
F31C
  8
HOJO
 10
-2097.5
 20
2217.5
 30
0.0
  0
SEQEND
  5
F31D
  8
HOJO
  0
POLYLINE
  5
E93A
  8
HOJO
 66
     1
 10
0.0
 20
0.0
 30
0.0
 70
     1
  0
VERTEX
  5
F31E
  8
HOJO
 10
-1037.5000000050529252
 20
67.500000000003638
 30
0.0
  0
VERTEX
  5
F31F
  8
HOJO
 10
-37.5000000050531526
 20
67.500000000003638
 30
0.0
  0
VERTEX
  5
F320
  8
HOJO
 10
-37.5000000050531526
 20
2217.5000000000040927
 30
0.0
  0
VERTEX
  5
F321
  8
HOJO
 10
-1037.5000000050529252
 20
2217.5000000000040927
 30
0.0
  0
SEQEND
  5
F322
  8
HOJO
  0
LINE
  5
E93B
  8
0
 10
-2067.5
 20
2217.5
 30
0.0
 11
-150.0
 21
2217.5
 31
0.0
  0
LINE
  5
E93C
  8
0
 10
-2067.5
 20
2277.5
 30
0.0
 11
-150.0
 21
2277.5
 31
0.0
  0
LINE
  5
E93D
  8
0
 10
-37.4999999999981668
 20
150.0
 30
0.0
 11
-37.5000000000018119
 21
2135.0
 31
0.0
  0
LINE
  5
E93E
  8
0
 10
-7.499999999998181
 20
150.0
 30
0.0
 11
-7.5000000000018172
 21
2135.0
 31
0.0
  0
LINE
  5
E93F
  8
0
 10
-2067.5
 20
7.5
 30
0.0
 11
-150.0
 21
7.5
 31
0.0
  0
LINE
  5
E940
  8
0
 10
-2067.5
 20
67.5
 30
0.0
 11
-150.0
 21
67.5
 31
0.0
  0
LINE
  5
E941
  8
0
 10
-2127.5
 20
92.5000000000081855
 30
0.0
 11
-2127.5000000000040927
 21
2192.5
 31
0.0
  0
LINE
  5
E942
  8
0
 10
-2097.5
 20
92.5000000000081855
 30
0.0
 11
-2097.5000000000040927
 21
2192.5
 31
0.0
  0
LINE
  5
E943
  8
0
 10
-1097.5000000050529252
 20
67.500000000003638
 30
0.0
 11
-1097.5000000050570179
 21
2217.5000000000040927
 31
0.0
  0
LINE
  5
E944
  8
0
 10
-1037.5000000050529252
 20
67.500000000003638
 30
0.0
 11
-1037.5000000050561084
 21
2217.5000000000040927
 31
0.0
  0
LINE
  5
E945
  8
0
 10
-2097.499999999998181
 20
1172.5000000000029559
 30
0.0
 11
-1097.5000000050529252
 21
1172.5000000000029559
 31
0.0
  0
LINE
  5
E946
  8
0
 10
-1037.5000000050549716
 20
1172.5000000000029559
 30
0.0
 11
-37.499999999996362
 21
1172.5000000000029559
 31
0.0
  0
LINE
  5
E947
  8
0
 10
-2097.499999999998181
 20
1112.5000000000040927
 30
0.0
 11
-1097.5000000050529252
 21
1112.5000000000040927
 31
0.0
  0
LINE
  5
E948
  8
0
 10
-1037.5000000050549716
 20
1112.5000000000040927
 30
0.0
 11
-37.499999999996362
 21
1112.5000000000040927
 31
0.0
  0
LINE
  5
E949
  8
0
 10
-2097.499999999998181
 20
1725.0000000000029559
 30
0.0
 11
-1097.5000000050529252
 21
1725.0000000000029559
 31
0.0
  0
LINE
  5
E94A
  8
0
 10
-1037.5000000050549716
 20
1725.0000000000029559
 30
0.0
 11
-37.499999999996362
 21
1725.0000000000029559
 31
0.0
  0
LINE
  5
E94B
  8
0
 10
-2097.499999999998181
 20
1665.0000000000040927
 30
0.0
 11
-1097.5000000050529252
 21
1665.0000000000040927
 31
0.0
  0
LINE
  5
E94C
  8
0
 10
-1037.5000000050549716
 20
1665.0000000000040927
 30
0.0
 11
-37.499999999996362
 21
1665.0000000000040927
 31
0.0
  0
LINE
  5
E94D
  8
0
 10
-2097.499999999998181
 20
477.5000000000035243
 30
0.0
 11
-1097.5000000050529252
 21
477.5000000000035243
 31
0.0
  0
LINE
  5
E94E
  8
0
 10
-1037.5000000050549716
 20
477.5000000000035243
 30
0.0
 11
-37.499999999996362
 21
477.5000000000035243
 31
0.0
  0
LINE
  5
E94F
  8
0
 10
-2097.499999999998181
 20
417.5000000000035811
 30
0.0
 11
-1097.5000000050529252
 21
417.5000000000035811
 31
0.0
  0
LINE
  5
E950
  8
0
 10
-1037.5000000050549716
 20
417.5000000000035811
 30
0.0
 11
-37.499999999996362
 21
417.5000000000035811
 31
0.0
  0
POLYLINE
  5
E951
  8
0
 66
     1
 10
0.0
 20
0.0
 30
0.0
 70
     1
  0
VERTEX
  5
F323
  8
0
 10
-67.5
 20
150.0
 30
0.0
  0
VERTEX
  5
F324
  8
0
 10
0.0
 20
150.0
 30
0.0
  0
VERTEX
  5
F325
  8
0
 10
0.0
 20
0.0
 30
0.0
  0
VERTEX
  5
F326
  8
0
 10
-150.0
 20
0.0
 30
0.0
  0
VERTEX
  5
F327
  8
0
 10
-150.0
 20
67.5000000000318323
 30
0.0
  0
VERTEX
  5
F328
  8
0
 10
-67.5
 20
150.0
 30
0.0
  0
SEQEND
  5
F329
  8
0
  0
POLYLINE
  5
E952
  8
0
 66
     1
 10
0.0
 20
0.0
 30
0.0
 70
     1
  0
VERTEX
  5
F32A
  8
0
 10
-67.5
 20
2135.0
 30
0.0
  0
VERTEX
  5
F32B
  8
0
 10
0.0
 20
2135.0
 30
0.0
  0
VERTEX
  5
F32C
  8
0
 10
0.0
 20
2285.0
 30
0.0
  0
VERTEX
  5
F32D
  8
0
 10
-150.0
 20
2285.0
 30
0.0
  0
VERTEX
  5
F32E
  8
0
 10
-150.0
 20
2217.4999999999681677
 30
0.0
  0
VERTEX
  5
F32F
  8
0
 10
-67.5
 20
2135.0
 30
0.0
  0
SEQEND
  5
F330
  8
0
  0
POLYLINE
  5
E953
  8
0
 66
     1
 10
0.0
 20
0.0
 30
0.0
 70
     1
  0
VERTEX
  5
F331
  8
0
 10
-1097.5000000050570179
 20
0.000000000007276
 30
0.0
  0
VERTEX
  5
F332
  8
0
 10
-1037.5000000050561084
 20
0.000000000007276
 30
0.0
  0
VERTEX
  5
F333
  8
0
 10
-1037.5000000050561084
 20
92.5000000000073044
 30
0.0
  0
VERTEX
  5
F334
  8
0
 10
-1097.5000000050570179
 20
92.5000000000073044
 30
0.0
  0
SEQEND
  5
F335
  8
0
  0
POLYLINE
  5
E954
  8
0
 66
     1
 10
0.0
 20
0.0
 30
0.0
 70
     1
  0
VERTEX
  5
F336
  8
0
 10
-1097.5000000050570179
 20
2285.0
 30
0.0
  0
VERTEX
  5
F337
  8
0
 10
-1037.5000000050561084
 20
2285.0
 30
0.0
  0
VERTEX
  5
F338
  8
0
 10
-1037.5000000050561084
 20
2192.5
 30
0.0
  0
VERTEX
  5
F339
  8
0
 10
-1097.5000000050570179
 20
2192.5
 30
0.0
  0
SEQEND
  5
F33A
  8
0
  0
POLYLINE
  5
E955
  8
0
 66
     1
 10
0.0
 20
0.0
 30
0.0
 70
     1
  0
VERTEX
  5
F33B
  8
0
 10
-2127.5
 20
0.0000000000081855
 30
0.0
  0
VERTEX
  5
F33C
  8
0
 10
-2067.5
 20
0.0000000000081855
 30
0.0
  0
VERTEX
  5
F33D
  8
0
 10
-2067.5
 20
92.5000000000081855
 30
0.0
  0
VERTEX
  5
F33E
  8
0
 10
-2127.5
 20
92.5000000000081855
 30
0.0
  0
SEQEND
  5
F33F
  8
0
  0
POLYLINE
  5
E956
  8
0
 66
     1
 10
0.0
 20
0.0
 30
0.0
 70
     1
  0
VERTEX
  5
F340
  8
0
 10
-2127.5
 20
2285.0
 30
0.0
  0
VERTEX
  5
F341
  8
0
 10
-2067.5
 20
2285.0
 30
0.0
  0
VERTEX
  5
F342
  8
0
 10
-2067.5
 20
2192.5
 30
0.0
  0
VERTEX
  5
F343
  8
0
 10
-2127.5
 20
2192.5
 30
0.0
  0
SEQEND
  5
F344
  8
0
  0
POLYLINE
  5
E957
  8
0
 66
     1
 10
0.0
 20
0.0
 30
0.0
  0
VERTEX
  5
F345
  8
0
 10
-2127.5
 20
0.0000000000081855
 30
0.0
  0
VERTEX
  5
F346
  8
0
 10
-2130.5
 20
0.0000000000081855
 30
0.0
  0
VERTEX
  5
F347
  8
0
 10
-2130.4999999999959073
 20
2285.0
 30
0.0
  0
VERTEX
  5
F348
  8
0
 10
-2127.4999999949400262
 20
2285.0
 30
0.0
  0
SEQEND
  5
F349
  8
0
  0
POLYLINE
  5
E958
  8
0
 66
     1
 10
0.0
 20
0.0
 30
0.0
 70
     1
  0
VERTEX
  5
F34A
  8
0
 10
0.000000000003638
 20
417.5000000000035811
 30
0.0
  0
VERTEX
  5
F34B
  8
0
 10
0.000000000003638
 20
477.5000000000035243
 30
0.0
  0
VERTEX
  5
F34C
  8
0
 10
-67.499999999996362
 20
477.5000000000035243
 30
0.0
  0
VERTEX
  5
F34D
  8
0
 10
-67.499999999996362
 20
417.5000000000035811
 30
0.0
  0
SEQEND
  5
F34E
  8
0
  0
POLYLINE
  5
E959
  8
0
 66
     1
 10
0.0
 20
0.0
 30
0.0
 70
     1
  0
VERTEX
  5
F34F
  8
0
 10
0.000000000003638
 20
1112.5000000000040927
 30
0.0
  0
VERTEX
  5
F350
  8
0
 10
0.000000000003638
 20
1172.5000000000029559
 30
0.0
  0
VERTEX
  5
F351
  8
0
 10
-67.499999999996362
 20
1172.5000000000029559
 30
0.0
  0
VERTEX
  5
F352
  8
0
 10
-67.499999999996362
 20
1112.5000000000040927
 30
0.0
  0
SEQEND
  5
F353
  8
0
  0
INSERT
  5
E98B
  8
0
  2
*U65
 10
-2097.5
 20
67.5
 30
0.0
  0
INSERT
  5
E995
  8
0
  2
*U66
 10
-2097.499999999998181
 20
477.5000000000035243
 30
0.0
  0
INSERT
  5
E99F
  8
0
  2
*U67
 10
-2097.499999999998181
 20
1172.5000000000029559
 30
0.0
  0
INSERT
  5
E9A9
  8
0
  2
*U68
 10
-2097.499999999998181
 20
1725.0000000000029559
 30
0.0
  0
INSERT
  5
E9EB
  8
0
  2
*U65
 10
-1037.5000000050529252
 20
67.500000000003638
 30
0.0
  0
INSERT
  5
E9F5
  8
0
  2
*U66
 10
-1037.5000000050511062
 20
477.500000000007276
 30
0.0
  0
INSERT
  5
E9FF
  8
0
  2
*U67
 10
-1037.5000000050511062
 20
1172.5000000000070486
 30
0.0
  0
INSERT
  5
EA09
  8
0
  2
*U68
 10
-1037.5000000050511062
 20
1725.0000000000070486
 30
0.0
  0
ENDBLK
  5
E774
  8
0
  0
BLOCK
  8
0
  2
*U65
 70
     1
 10
0.0
 20
0.0
 30
0.0
  3
*U65
  1

  0
POLYLINE
  5
E9B6
  8
HOJO
 66
     1
 10
0.0
 20
0.0
 30
0.0
 70
     1
1001
ACDBBLOCKREPETAG
1070
     1
1071
        0
1005
E9B6
1001
ACAD
1000
ASC_BOUNDS
1002
{
1070
    19
1005
E9B7
1002
}
  0
VERTEX
  5
F35E
  8
HOJO
 10
0.0
 20
0.0
 30
0.0
  0
VERTEX
  5
F35F
  8
HOJO
 10
1000.0000000000010232
 20
0.0
 30
0.0
  0
VERTEX
  5
F360
  8
HOJO
 10
1000.0000000000010232
 20
350.0000000000035811
 30
0.0
  0
VERTEX
  5
F361
  8
HOJO
 10
0.0
 20
350.0000000000035811
 30
0.0
  0
SEQEND
  5
F362
  8
HOJO
  0
INSERT
  5
E9B7
  8
0
  6
CONTINUOUS
  2
*X72
 10
0.0
 20
0.0
 30
0.0
1001
GRADIENTCOLOR1ACI
1070
     5
1001
GRADIENTCOLOR2ACI
1070
     2
1001
ACDBBLOCKREPETAG
1070
     1
1071
        1
1005
E9B7
1001
ACAD
1000
HATCH
1002
{
1070
    19
1000
ANSI36
1040
50.0
1040
0.0
1000
ASC_BOUNDS
1070
     1
1070
     1
1070
     1
1005
E9B6
1000
ASC_SEEDPOINT
1011
670.3337129269574461
1021
0.0
1031
0.0
1021
379.0474968301588206
1031
0.0
1000
R14_HATCH_DATA
1000
E9B7
1011
1.0
1021
0.0
1031
0.0
1021
0.0
1031
0.0
1011
0.0
1021
0.0
1031
0.0
1021
1.0
1031
0.0
1011
0.0
1021
0.0
1031
0.0
1021
0.0
1031
1.0
1040
0.0
1010
0.0
1020
0.0
1030
1.0
1000
ANSI36
1070
     0
1070
     1
1071
        1
1071
        7
1070
     0
1070
     1
1071
        4
1040
1000.0000000000010232
1040
350.0000000000035811
1040
0.0
1040
350.0000000000035811
1040
0.0
1040
-0.0000000000000568
1040
1000.0000000000010232
1040
-0.0000000000000568
1071
        1
1005
E9B6
1070
     1
1070
     1
1040
0.0
1040
50.0
1070
     0
1070
     1
1040
0.7853981633974483
1040
0.0
1040
0.0
1040
84.1899011350233337
1040
308.6963041617522094
1070
     4
1040
396.875
1040
-79.375
1040
0.0
1040
-79.375
1040
4.2028662589925796
1071
        1
1040
670.3337129269574461
1040
379.0474968301588206
1040
0.0
1002
}
  0
ENDBLK
  5
E9B5
  8
0
  0
BLOCK
  8
0
  2
*U66
 70
     1
 10
0.0
 20
0.0
 30
0.0
  3
*U66
  1

  0
POLYLINE
  5
E9C7
  8
HOJO
 66
     1
 10
0.0
 20
0.0
 30
0.0
 70
     1
1001
ACDBBLOCKREPETAG
1070
     1
1071
        0
1005
E9C7
1001
ACAD
1000
ASC_BOUNDS
1002
{
1070
    19
1005
E9C8
1002
}
  0
VERTEX
  5
F363
  8
HOJO
 10
0.0
 20
0.0
 30
0.0
  0
VERTEX
  5
F364
  8
HOJO
 10
1000.0000000000010232
 20
0.0
 30
0.0
  0
VERTEX
  5
F365
  8
HOJO
 10
1000.0000000000010232
 20
635.0
 30
0.0
  0
VERTEX
  5
F366
  8
HOJO
 10
0.0
 20
635.0
 30
0.0
  0
SEQEND
  5
F367
  8
HOJO
  0
INSERT
  5
E9C8
  8
0
  6
CONTINUOUS
  2
*X73
 10
0.0
 20
0.0
 30
0.0
1001
GRADIENTCOLOR1ACI
1070
     5
1001
GRADIENTCOLOR2ACI
1070
     2
1001
ACDBBLOCKREPETAG
1070
     1
1071
        1
1005
E9C8
1001
ACAD
1000
HATCH
1002
{
1070
    19
1000
ANSI36
1040
50.0
1040
0.0
1000
ASC_BOUNDS
1070
     1
1070
     1
1070
     1
1005
E9C7
1000
ASC_SEEDPOINT
1011
670.3337129269574461
1021
0.0
1031
0.0
1021
379.0474968301588206
1031
0.0
1000
R14_HATCH_DATA
1000
E9C8
1011
1.0
1021
0.0
1031
0.0
1021
0.0
1031
0.0
1011
0.0
1021
0.0
1031
0.0
1021
1.0
1031
0.0
1011
0.0
1021
0.0
1031
0.0
1021
0.0
1031
1.0
1040
0.0
1010
0.0
1020
0.0
1030
1.0
1000
ANSI36
1070
     0
1070
     1
1071
        1
1071
        7
1070
     0
1070
     1
1071
        4
1040
0.0
1040
635.0
1040
0.0
1040
0.0
1040
1000.0000000000010232
1040
0.0
1040
1000.0000000000010232
1040
635.0
1071
        1
1005
E9C7
1070
     1
1070
     1
1040
0.0
1040
50.0
1070
     0
1070
     1
1040
0.7853981633974483
1040
0.0
1040
0.0
1040
84.1899011350233337
1040
308.6963041617522094
1070
     4
1040
396.875
1040
-79.375
1040
0.0
1040
-79.375
1040
4.2028662589925796
1071
        1
1040
670.3337129269574461
1040
379.0474968301588206
1040
0.0
1002
}
  0
ENDBLK
  5
E9C6
  8
0
  0
BLOCK
  8
0
  2
*U67
 70
     1
 10
0.0
 20
0.0
 30
0.0
  3
*U67
  1

  0
POLYLINE
  5
E9D8
  8
HOJO
 66
     1
 10
0.0
 20
0.0
 30
0.0
 70
     1
1001
ACDBBLOCKREPETAG
1070
     1
1071
        0
1005
E9D8
1001
ACAD
1000
ASC_BOUNDS
1002
{
1070
    19
1005
E9D9
1002
}
  0
VERTEX
  5
F368
  8
HOJO
 10
0.0
 20
0.0
 30
0.0
  0
VERTEX
  5
F369
  8
HOJO
 10
1000.0000000000010232
 20
0.0
 30
0.0
  0
VERTEX
  5
F36A
  8
HOJO
 10
1000.0000000000010232
 20
492.4999999999997726
 30
0.0
  0
VERTEX
  5
F36B
  8
HOJO
 10
0.0
 20
492.4999999999997726
 30
0.0
  0
SEQEND
  5
F36C
  8
HOJO
  0
INSERT
  5
E9D9
  8
0
  6
CONTINUOUS
  2
*X74
 10
0.0
 20
0.0
 30
0.0
1001
GRADIENTCOLOR1ACI
1070
     5
1001
GRADIENTCOLOR2ACI
1070
     2
1001
ACDBBLOCKREPETAG
1070
     1
1071
        1
1005
E9D9
1001
ACAD
1000
HATCH
1002
{
1070
    19
1000
ANSI36
1040
50.0
1040
0.0
1000
ASC_BOUNDS
1070
     1
1070
     1
1070
     1
1005
E9D8
1000
ASC_SEEDPOINT
1011
670.3337129269574461
1021
0.0
1031
0.0
1021
379.0474968301588206
1031
0.0
1000
R14_HATCH_DATA
1000
E9D9
1011
1.0
1021
0.0
1031
0.0
1021
0.0
1031
0.0
1011
0.0
1021
0.0
1031
0.0
1021
1.0
1031
0.0
1011
0.0
1021
0.0
1031
0.0
1021
0.0
1031
1.0
1040
0.0
1010
0.0
1020
0.0
1030
1.0
1000
ANSI36
1070
     0
1070
     1
1071
        1
1071
        7
1070
     0
1070
     1
1071
        4
1040
0.0
1040
492.4999999999997726
1040
0.0
1040
0.0
1040
1000.0000000000010232
1040
0.0
1040
1000.0000000000010232
1040
492.4999999999997726
1071
        1
1005
E9D8
1070
     1
1070
     1
1040
0.0
1040
50.0
1070
     0
1070
     1
1040
0.7853981633974483
1040
0.0
1040
0.0
1040
84.1899011350233337
1040
308.6963041617522094
1070
     4
1040
396.875
1040
-79.375
1040
0.0
1040
-79.375
1040
4.2028662589925796
1071
        1
1040
670.3337129269574461
1040
379.0474968301588206
1040
0.0
1002
}
  0
ENDBLK
  5
E9D7
  8
0
  0
BLOCK
  8
0
  2
*U68
 70
     1
 10
0.0
 20
0.0
 30
0.0
  3
*U68
  1

  0
POLYLINE
  5
E974
  8
HOJO
 66
     1
 10
0.0
 20
0.0
 30
0.0
 70
     1
1001
ACDBBLOCKREPETAG
1070
     1
1071
        0
1005
E974
1001
ACAD
1000
ASC_BOUNDS
1002
{
1070
    19
1005
E975
1002
}
  0
VERTEX
  5
F359
  8
HOJO
 10
0.0
 20
0.0
 30
0.0
  0
VERTEX
  5
F35A
  8
HOJO
 10
1000.0000000000010232
 20
0.0
 30
0.0
  0
VERTEX
  5
F35B
  8
HOJO
 10
1000.0000000000010232
 20
492.4999999999963052
 30
0.0
  0
VERTEX
  5
F35C
  8
HOJO
 10
0.0
 20
492.4999999999963052
 30
0.0
  0
SEQEND
  5
F35D
  8
HOJO
  0
INSERT
  5
E975
  8
0
  6
CONTINUOUS
  2
*X71
 10
0.0
 20
0.0
 30
0.0
1001
GRADIENTCOLOR1ACI
1070
     5
1001
GRADIENTCOLOR2ACI
1070
     2
1001
ACDBBLOCKREPETAG
1070
     1
1071
        1
1005
E975
1001
ACAD
1000
HATCH
1002
{
1070
    19
1000
ANSI36
1040
50.0
1040
0.0
1000
ASC_BOUNDS
1070
     1
1070
     1
1070
     1
1005
E974
1000
ASC_SEEDPOINT
1011
670.3337129269574461
1021
0.0
1031
0.0
1021
379.0474968301588206
1031
0.0
1000
R14_HATCH_DATA
1000
E975
1011
1.0
1021
0.0
1031
0.0
1021
0.0
1031
0.0
1011
0.0
1021
0.0
1031
0.0
1021
1.0
1031
0.0
1011
0.0
1021
0.0
1031
0.0
1021
0.0
1031
1.0
1040
0.0
1010
0.0
1020
0.0
1030
1.0
1000
ANSI36
1070
     0
1070
     1
1071
        1
1071
        7
1070
     0
1070
     1
1071
        4
1040
0.0
1040
492.4999999999963052
1040
0.0
1040
0.0
1040
1000.0000000000010232
1040
0.0
1040
1000.0000000000010232
1040
492.4999999999963052
1071
        1
1005
E974
1070
     1
1070
     1
1040
0.0
1040
50.0
1070
     0
1070
     1
1040
0.7853981633974483
1040
0.0
1040
0.0
1040
84.1899011350233337
1040
308.6963041617522094
1070
     4
1040
396.875
1040
-79.375
1040
0.0
1040
-79.375
1040
4.2028662589925796
1071
        1
1040
670.3337129269574461
1040
379.0474968301588206
1040
0.0
1002
}
  0
ENDBLK
  5
E976
  8
0
  0
BLOCK
  8
0
  2
*U69
 70
     1
 10
0.0
 20
0.0
 30
0.0
  3
*U69
  1

  0
POLYLINE
  5
E96D
  8
HOJO
 66
     1
 10
0.0
 20
0.0
 30
0.0
 70
     1
1001
ACDBBLOCKREPETAG
1070
     1
1071
        0
1005
E96D
1001
ACAD
1000
ASC_BOUNDS
1002
{
1070
    19
1005
E96E
1002
}
  0
VERTEX
  5
F354
  8
HOJO
 10
0.0
 20
0.0
 30
0.0
  0
VERTEX
  5
F355
  8
HOJO
 10
1000.0
 20
0.0
 30
0.0
  0
VERTEX
  5
F356
  8
HOJO
 10
1000.0
 20
1000.0
 30
0.0
  0
VERTEX
  5
F357
  8
HOJO
 10
0.0
 20
1000.0
 30
0.0
  0
SEQEND
  5
F358
  8
HOJO
  0
INSERT
  5
E96E
  8
0
  6
CONTINUOUS
  2
*X70
 10
0.0
 20
0.0
 30
0.0
1001
GRADIENTCOLOR1ACI
1070
     5
1001
GRADIENTCOLOR2ACI
1070
     2
1001
ACDBBLOCKREPETAG
1070
     1
1071
        1
1005
E96E
1001
ACAD
1000
HATCH
1002
{
1070
    19
1000
ANSI36
1040
50.0
1040
0.0
1000
ASC_BOUNDS
1070
     1
1070
     1
1070
     1
1005
E96D
1000
ASC_SEEDPOINT
1011
670.3337129269574461
1021
0.0
1031
0.0
1021
379.0474968301588206
1031
0.0
1000
R14_HATCH_DATA
1000
E96E
1011
1.0
1021
0.0
1031
0.0
1021
0.0
1031
0.0
1011
0.0
1021
0.0
1031
0.0
1021
1.0
1031
0.0
1011
0.0
1021
0.0
1031
0.0
1021
0.0
1031
1.0
1040
0.0
1010
0.0
1020
0.0
1030
1.0
1000
ANSI36
1070
     0
1070
     1
1071
        1
1071
        7
1070
     0
1070
     1
1071
        4
1040
1000.0
1040
1000.0
1040
0.0000000000001137
1040
1000.0
1040
0.0000000000001137
1040
0.0
1040
1000.0
1040
-0.0000000000000568
1071
        1
1005
E96D
1070
     1
1070
     1
1040
0.0
1040
50.0
1070
     0
1070
     1
1040
0.7853981633974483
1040
0.0
1040
0.0
1040
84.1899011350233337
1040
308.6963041617522094
1070
     4
1040
396.875
1040
-79.375
1040
0.0
1040
-79.375
1040
4.2028662589925796
1071
        1
1040
670.3337129269574461
1040
379.0474968301588206
1040
0.0
1002
}
  0
ENDBLK
  5
E96F
  8
0
  0
BLOCK
  8
0
  2
*X70
 70
     1
 10
0.0
 20
0.0
 30
0.0
  3
*X70
  1

  0
LINE
  5
EDDC
  8
0
 62
     0
 10
898.025612106915446
 20
0.0
 30
0.0
 11
1000.0
 21
101.9743878930847956
 31
0.0
  0
LINE
  5
EDDD
  8
0
 62
     0
 10
926.0889124852559462
 20
252.5697034050697027
 30
0.0
 11
1000.0
 21
326.4807909198136144
 31
0.0
  0
LINE
  5
EDDE
  8
0
 62
     0
 10
869.96231172857415
 20
196.4431026483875087
 30
0.0
 11
869.96231172857415
 21
196.4431026483875087
 31
0.0
  0
LINE
  5
EDDF
  8
0
 62
     0
 10
673.5192090801865561
 20
0.0000000000000568
 30
0.0
 11
813.8357109718914444
 21
140.3165018917052009
 31
0.0
  0
LINE
  5
EDE0
  8
0
 62
     0
 10
954.1522128635978106
 20
505.1394068101398034
 30
0.0
 11
954.1522128635978106
 21
505.1394068101398034
 31
0.0
  0
LINE
  5
EDE1
  8
0
 62
     0
 10
617.3926083235043052
 20
168.3798022700466106
 30
0.0
 11
898.025612106915446
 21
449.012806053457723
 31
0.0
  0
LINE
  5
EDE2
  8
0
 62
     0
 10
561.2660075668220543
 20
112.2532015133644023
 30
0.0
 11
561.2660075668220543
 21
112.2532015133644023
 31
0.0
  0
LINE
  5
EDE3
  8
0
 62
     0
 10
449.012806053457723
 20
0.0
 30
0.0
 11
505.1394068101398034
 21
56.1266007566822083
 31
0.0
  0
LINE
  5
EDE4
  8
0
 62
     0
 10
701.5825094585277384
 20
477.0761064317986211
 30
0.0
 11
982.2155132419388792
 21
757.7091102152096482
 31
0.0
  0
LINE
  5
EDE5
  8
0
 62
     0
 10
645.4559087018454875
 20
420.9495056751164839
 30
0.0
 11
645.4559087018454875
 21
420.9495056751164839
 31
0.0
  0
LINE
  5
EDE6
  8
0
 62
     0
 10
308.6963041617519821
 20
84.1899011350233053
 30
0.0
 11
589.3293079451632366
 21
364.8229049184342898
 31
0.0
  0
LINE
  5
EDE7
  8
0
 62
     0
 10
252.5697034050699017
 20
28.0633003783410686
 30
0.0
 11
252.5697034050699017
 21
28.0633003783410686
 31
0.0
  0
LINE
  5
EDE8
  8
0
 62
     0
 10
785.7724105935511716
 20
785.7724105935511716
 30
0.0
 11
1000.0
 21
1000.0
 31
0.0
  0
LINE
  5
EDE9
  8
0
 62
     0
 10
729.6458098368685796
 20
729.6458098368685796
 30
0.0
 11
729.6458098368685796
 21
729.6458098368685796
 31
0.0
  0
LINE
  5
EDEA
  8
0
 62
     0
 10
392.8862052967754153
 20
392.8862052967754153
 30
0.0
 11
673.5192090801865561
 21
673.5192090801865561
 31
0.0
  0
LINE
  5
EDEB
  8
0
 62
     0
 10
336.759604540093278
 20
336.759604540093278
 30
0.0
 11
336.759604540093278
 21
336.759604540093278
 31
0.0
  0
LINE
  5
EDEC
  8
0
 62
     0
 10
0.0000000000000568
 20
0.0000000000000568
 30
0.0
 11
280.633003783411084
 21
280.633003783411084
 31
0.0
  0
LINE
  5
EDED
  8
0
 62
     0
 10
477.0761064317986779
 20
701.5825094585277384
 30
0.0
 11
757.7091102152096482
 21
982.2155132419388792
 31
0.0
  0
LINE
  5
EDEE
  8
0
 62
     0
 10
420.9495056751164839
 20
645.4559087018454875
 30
0.0
 11
420.9495056751164839
 21
645.4559087018454875
 31
0.0
  0
LINE
  5
EDEF
  8
0
 62
     0
 10
84.1899011350233479
 20
308.6963041617522094
 30
0.0
 11
364.8229049184345172
 21
589.3293079451632366
 31
0.0
  0
LINE
  5
EDF0
  8
0
 62
     0
 10
28.063300378341129
 20
252.569703405069987
 30
0.0
 11
28.063300378341129
 21
252.569703405069987
 31
0.0
  0
LINE
  5
EDF1
  8
0
 62
     0
 10
505.1394068101398034
 20
954.1522128635978106
 30
0.0
 11
505.1394068101398034
 21
954.1522128635978106
 31
0.0
  0
LINE
  5
EDF2
  8
0
 62
     0
 10
168.3798022700466106
 20
617.3926083235043052
 30
0.0
 11
449.012806053457723
 21
898.025612106915446
 31
0.0
  0
LINE
  5
EDF3
  8
0
 62
     0
 10
112.2532015133644023
 20
561.2660075668220543
 30
0.0
 11
112.2532015133644023
 21
561.2660075668220543
 31
0.0
  0
LINE
  5
EDF4
  8
0
 62
     0
 10
0.0000000000001137
 20
449.0128060534577799
 30
0.0
 11
56.1266007566822083
 21
505.1394068101398034
 31
0.0
  0
LINE
  5
EDF5
  8
0
 62
     0
 10
252.5697034050701006
 20
926.088912485256742
 30
0.0
 11
326.4807909198136144
 21
1000.0
 31
0.0
  0
LINE
  5
EDF6
  8
0
 62
     0
 10
196.4431026483879066
 20
869.96231172857415
 30
0.0
 11
196.4431026483879066
 21
869.96231172857415
 31
0.0
  0
LINE
  5
EDF7
  8
0
 62
     0
 10
0.0000000000000568
 20
673.5192090801865561
 30
0.0
 11
140.3165018917055988
 21
813.8357109718922402
 31
0.0
  0
LINE
  5
EDF8
  8
0
 62
     0
 10
0.0000000000000568
 20
898.025612106915446
 30
0.0
 11
101.9743878930845966
 21
1000.0
 31
0.0
  0
ENDBLK
  5
EDFA
  8
0
  0
BLOCK
  8
0
  2
*X71
 70
     1
 10
0.0
 20
0.0
 30
0.0
  3
*X71
  1

  0
LINE
  5
EE01
  8
0
 62
     0
 10
898.025612106915446
 20
0.0
 30
0.0
 11
1000.0000000000010232
 21
101.9743878930866003
 31
0.0
  0
LINE
  5
EE02
  8
0
 62
     0
 10
926.0889124852564009
 20
252.5697034050697027
 30
0.0
 11
1000.0000000000010232
 21
326.480790919815604
 31
0.0
  0
LINE
  5
EE03
  8
0
 62
     0
 10
869.96231172857415
 20
196.4431026483875087
 30
0.0
 11
869.96231172857415
 21
196.4431026483875087
 31
0.0
  0
LINE
  5
EE04
  8
0
 62
     0
 10
673.5192090801865561
 20
-0.0000000000000568
 30
0.0
 11
813.8357109718918991
 21
140.3165018917052862
 31
0.0
  0
LINE
  5
EE05
  8
0
 62
     0
 10
617.3926083235043052
 20
168.3798022700466106
 30
0.0
 11
898.025612106915446
 21
449.012806053457723
 31
0.0
  0
LINE
  5
EE06
  8
0
 62
     0
 10
561.2660075668220543
 20
112.2532015133644023
 30
0.0
 11
561.2660075668220543
 21
112.2532015133644023
 31
0.0
  0
LINE
  5
EE07
  8
0
 62
     0
 10
449.012806053457723
 20
0.0
 30
0.0
 11
505.1394068101398034
 21
56.1266007566822083
 31
0.0
  0
LINE
  5
EE08
  8
0
 62
     0
 10
701.5825094585277384
 20
477.0761064317986211
 30
0.0
 11
717.0064030267252519
 21
492.4999999999963052
 31
0.0
  0
LINE
  5
EE09
  8
0
 62
     0
 10
645.4559087018454875
 20
420.9495056751164839
 30
0.0
 11
645.4559087018454875
 21
420.9495056751164839
 31
0.0
  0
LINE
  5
EE0A
  8
0
 62
     0
 10
308.6963041617522094
 20
84.1899011350233053
 30
0.0
 11
589.3293079451632366
 21
364.8229049184344035
 31
0.0
  0
LINE
  5
EE0B
  8
0
 62
     0
 10
252.569703405069987
 20
28.0633003783411183
 30
0.0
 11
252.569703405069987
 21
28.0633003783411183
 31
0.0
  0
LINE
  5
EE0C
  8
0
 62
     0
 10
392.8862052967754153
 20
392.8862052967754153
 30
0.0
 11
492.4999999999964757
 21
492.4999999999964757
 31
0.0
  0
LINE
  5
EE0D
  8
0
 62
     0
 10
336.759604540093278
 20
336.759604540093278
 30
0.0
 11
336.759604540093278
 21
336.759604540093278
 31
0.0
  0
LINE
  5
EE0E
  8
0
 62
     0
 10
0.0
 20
0.0
 30
0.0
 11
280.633003783411084
 21
280.633003783411084
 31
0.0
  0
LINE
  5
EE0F
  8
0
 62
     0
 10
84.1899011350233053
 20
308.6963041617522094
 30
0.0
 11
267.9935969732675858
 21
492.4999999999964757
 31
0.0
  0
LINE
  5
EE10
  8
0
 62
     0
 10
28.0633003783411183
 20
252.569703405069987
 30
0.0
 11
28.0633003783411183
 21
252.569703405069987
 31
0.0
  0
LINE
  5
EE11
  8
0
 62
     0
 10
0.0
 20
449.012806053457723
 30
0.0
 11
43.4871939465387385
 21
492.4999999999964757
 31
0.0
  0
ENDBLK
  5
EE13
  8
0
  0
BLOCK
  8
0
  2
*X72
 70
     1
 10
0.0
 20
0.0
 30
0.0
  3
*X72
  1

  0
LINE
  5
EE1A
  8
0
 62
     0
 10
898.025612106915446
 20
0.0
 30
0.0
 11
1000.0000000000010232
 21
101.9743878930866003
 31
0.0
  0
LINE
  5
EE1B
  8
0
 62
     0
 10
926.0889124852559462
 20
252.5697034050697027
 30
0.0
 11
1000.0000000000010232
 21
326.480790919815604
 31
0.0
  0
LINE
  5
EE1C
  8
0
 62
     0
 10
869.96231172857415
 20
196.4431026483875087
 30
0.0
 11
869.96231172857415
 21
196.4431026483875087
 31
0.0
  0
LINE
  5
EE1D
  8
0
 62
     0
 10
673.5192090801863287
 20
-0.0000000000001137
 30
0.0
 11
813.8357109718914444
 21
140.3165018917052009
 31
0.0
  0
LINE
  5
EE1E
  8
0
 62
     0
 10
617.3926083235043052
 20
168.3798022700466106
 30
0.0
 11
799.0128060534615315
 21
350.0000000000038085
 31
0.0
  0
LINE
  5
EE1F
  8
0
 62
     0
 10
561.2660075668220543
 20
112.2532015133643029
 30
0.0
 11
561.2660075668220543
 21
112.2532015133643029
 31
0.0
  0
LINE
  5
EE20
  8
0
 62
     0
 10
449.0128060534574956
 20
-0.0000000000000568
 30
0.0
 11
505.1394068101398034
 21
56.1266007566821585
 31
0.0
  0
LINE
  5
EE21
  8
0
 62
     0
 10
308.6963041617522094
 20
84.1899011350233053
 30
0.0
 11
574.5064030267326416
 21
350.0000000000038085
 31
0.0
  0
LINE
  5
EE22
  8
0
 62
     0
 10
252.5697034050699017
 20
28.0633003783410793
 30
0.0
 11
252.5697034050699017
 21
28.0633003783410793
 31
0.0
  0
LINE
  5
EE23
  8
0
 62
     0
 10
336.7596045400932212
 20
336.7596045400932212
 30
0.0
 11
336.7596045400932212
 21
336.7596045400932212
 31
0.0
  0
LINE
  5
EE24
  8
0
 62
     0
 10
-0.0000000000000284
 20
-0.0000000000000284
 30
0.0
 11
280.6330037834110271
 21
280.6330037834110271
 31
0.0
  0
LINE
  5
EE25
  8
0
 62
     0
 10
84.1899011350233053
 20
308.6963041617522094
 30
0.0
 11
125.4935969732748049
 21
350.0000000000035811
 31
0.0
  0
LINE
  5
EE26
  8
0
 62
     0
 10
28.0633003783410793
 20
252.5697034050699017
 30
0.0
 11
28.0633003783410793
 21
252.5697034050699017
 31
0.0
  0
ENDBLK
  5
EE28
  8
0
  0
BLOCK
  8
0
  2
*X73
 70
     1
 10
0.0
 20
0.0
 30
0.0
  3
*X73
  1

  0
LINE
  5
EE2F
  8
0
 62
     0
 10
898.025612106915446
 20
0.0
 30
0.0
 11
1000.0000000000010232
 21
101.9743878930866003
 31
0.0
  0
LINE
  5
EE30
  8
0
 62
     0
 10
926.0889124852564009
 20
252.5697034050697027
 30
0.0
 11
1000.0000000000010232
 21
326.480790919815604
 31
0.0
  0
LINE
  5
EE31
  8
0
 62
     0
 10
869.96231172857415
 20
196.4431026483875087
 30
0.0
 11
869.96231172857415
 21
196.4431026483875087
 31
0.0
  0
LINE
  5
EE32
  8
0
 62
     0
 10
673.5192090801865561
 20
-0.0000000000000568
 30
0.0
 11
813.8357109718918991
 21
140.3165018917052862
 31
0.0
  0
LINE
  5
EE33
  8
0
 62
     0
 10
954.1522128635978106
 20
505.1394068101398034
 30
0.0
 11
954.1522128635978106
 21
505.1394068101398034
 31
0.0
  0
LINE
  5
EE34
  8
0
 62
     0
 10
617.3926083235043052
 20
168.3798022700466106
 30
0.0
 11
898.025612106915446
 21
449.012806053457723
 31
0.0
  0
LINE
  5
EE35
  8
0
 62
     0
 10
561.2660075668220543
 20
112.2532015133644023
 30
0.0
 11
561.2660075668220543
 21
112.2532015133644023
 31
0.0
  0
LINE
  5
EE36
  8
0
 62
     0
 10
449.012806053457723
 20
0.0
 30
0.0
 11
505.1394068101398034
 21
56.1266007566822083
 31
0.0
  0
LINE
  5
EE37
  8
0
 62
     0
 10
701.5825094585277384
 20
477.0761064317986211
 30
0.0
 11
859.5064030267291173
 21
635.0000000000001137
 31
0.0
  0
LINE
  5
EE38
  8
0
 62
     0
 10
645.4559087018454875
 20
420.9495056751164839
 30
0.0
 11
645.4559087018454875
 21
420.9495056751164839
 31
0.0
  0
LINE
  5
EE39
  8
0
 62
     0
 10
308.6963041617522094
 20
84.1899011350233053
 30
0.0
 11
589.3293079451632366
 21
364.8229049184344035
 31
0.0
  0
LINE
  5
EE3A
  8
0
 62
     0
 10
252.569703405069987
 20
28.0633003783411183
 30
0.0
 11
252.569703405069987
 21
28.0633003783411183
 31
0.0
  0
LINE
  5
EE3B
  8
0
 62
     0
 10
392.8862052967754153
 20
392.8862052967754153
 30
0.0
 11
635.0000000000001137
 21
635.0000000000001137
 31
0.0
  0
LINE
  5
EE3C
  8
0
 62
     0
 10
336.759604540093278
 20
336.759604540093278
 30
0.0
 11
336.759604540093278
 21
336.759604540093278
 31
0.0
  0
LINE
  5
EE3D
  8
0
 62
     0
 10
0.0
 20
0.0
 30
0.0
 11
280.633003783411084
 21
280.633003783411084
 31
0.0
  0
LINE
  5
EE3E
  8
0
 62
     0
 10
84.1899011350233053
 20
308.6963041617522094
 30
0.0
 11
364.8229049184344035
 21
589.3293079451632366
 31
0.0
  0
LINE
  5
EE3F
  8
0
 62
     0
 10
28.0633003783411183
 20
252.569703405069987
 30
0.0
 11
28.0633003783411183
 21
252.569703405069987
 31
0.0
  0
LINE
  5
EE40
  8
0
 62
     0
 10
168.3798022700466106
 20
617.3926083235043052
 30
0.0
 11
185.9871939465423907
 21
635.0000000000001137
 31
0.0
  0
LINE
  5
EE41
  8
0
 62
     0
 10
112.2532015133644023
 20
561.2660075668220543
 30
0.0
 11
112.2532015133644023
 21
561.2660075668220543
 31
0.0
  0
LINE
  5
EE42
  8
0
 62
     0
 10
0.0
 20
449.012806053457723
 30
0.0
 11
56.1266007566821727
 21
505.1394068101398034
 31
0.0
  0
ENDBLK
  5
EE44
  8
0
  0
BLOCK
  8
0
  2
*X74
 70
     1
 10
0.0
 20
0.0
 30
0.0
  3
*X74
  1

  0
LINE
  5
EE4B
  8
0
 62
     0
 10
898.025612106915446
 20
0.0
 30
0.0
 11
1000.0000000000010232
 21
101.9743878930866003
 31
0.0
  0
LINE
  5
EE4C
  8
0
 62
     0
 10
926.0889124852564009
 20
252.5697034050697027
 30
0.0
 11
1000.0000000000010232
 21
326.480790919815604
 31
0.0
  0
LINE
  5
EE4D
  8
0
 62
     0
 10
869.96231172857415
 20
196.4431026483875087
 30
0.0
 11
869.96231172857415
 21
196.4431026483875087
 31
0.0
  0
LINE
  5
EE4E
  8
0
 62
     0
 10
673.5192090801865561
 20
-0.0000000000000568
 30
0.0
 11
813.8357109718918991
 21
140.3165018917052862
 31
0.0
  0
LINE
  5
EE4F
  8
0
 62
     0
 10
617.3926083235043052
 20
168.3798022700466106
 30
0.0
 11
898.025612106915446
 21
449.012806053457723
 31
0.0
  0
LINE
  5
EE50
  8
0
 62
     0
 10
561.2660075668220543
 20
112.2532015133644023
 30
0.0
 11
561.2660075668220543
 21
112.2532015133644023
 31
0.0
  0
LINE
  5
EE51
  8
0
 62
     0
 10
449.012806053457723
 20
0.0
 30
0.0
 11
505.1394068101398034
 21
56.1266007566822083
 31
0.0
  0
LINE
  5
EE52
  8
0
 62
     0
 10
701.5825094585277384
 20
477.0761064317986211
 30
0.0
 11
717.0064030267290036
 21
492.5000000000001137
 31
0.0
  0
LINE
  5
EE53
  8
0
 62
     0
 10
645.4559087018454875
 20
420.9495056751164839
 30
0.0
 11
645.4559087018454875
 21
420.9495056751164839
 31
0.0
  0
LINE
  5
EE54
  8
0
 62
     0
 10
308.6963041617522094
 20
84.1899011350233053
 30
0.0
 11
589.3293079451632366
 21
364.8229049184344035
 31
0.0
  0
LINE
  5
EE55
  8
0
 62
     0
 10
252.569703405069987
 20
28.0633003783411183
 30
0.0
 11
252.569703405069987
 21
28.0633003783411183
 31
0.0
  0
LINE
  5
EE56
  8
0
 62
     0
 10
392.8862052967754153
 20
392.8862052967754153
 30
0.0
 11
492.5000000000001137
 21
492.5000000000001137
 31
0.0
  0
LINE
  5
EE57
  8
0
 62
     0
 10
336.759604540093278
 20
336.759604540093278
 30
0.0
 11
336.759604540093278
 21
336.759604540093278
 31
0.0
  0
LINE
  5
EE58
  8
0
 62
     0
 10
0.0
 20
0.0
 30
0.0
 11
280.633003783411084
 21
280.633003783411084
 31
0.0
  0
LINE
  5
EE59
  8
0
 62
     0
 10
84.1899011350233053
 20
308.6963041617522094
 30
0.0
 11
267.9935969732713943
 21
492.5000000000001137
 31
0.0
  0
LINE
  5
EE5A
  8
0
 62
     0
 10
28.0633003783411183
 20
252.569703405069987
 30
0.0
 11
28.0633003783411183
 21
252.569703405069987
 31
0.0
  0
LINE
  5
EE5B
  8
0
 62
     0
 10
0.0
 20
449.012806053457723
 30
0.0
 11
43.4871939465423623
 21
492.5000000000001137
 31
0.0
  0
ENDBLK
  5
EE5D
  8
0
  0
BLOCK
  8
0
  2
*U75
 70
     1
 10
0.0
 20
0.0
 30
0.0
  3
*U75
  1

  0
TEXT
  5
EB53
  8
0
 10
79.1878172588833422
 20
6589.7969543147210061
 30
0.0
 40
150.0
  1
縦型(単独)
 50
270.0
  7
_MS_ゴシック
  0
ENDBLK
  5
EB55
  8
0
  0
BLOCK
  8
0
  2
*U76
 70
     1
 10
0.0
 20
0.0
 30
0.0
  3
*U76
  1

  0
TEXT
  5
EB57
  8
0
 10
79.5685279187817969
 20
2509.7969543147210061
 30
0.0
 40
150.0
  1
縦型(連結)
 50
270.0
  7
_MS_ゴシック
  0
ENDBLK
  5
EB59
  8
0
  0
BLOCK
  8
0
  2
*U77
 70
     1
 10
0.0
 20
0.0
 30
0.0
  3
*U77
  1

  0
TEXT
  5
EB60
  8
0___30
 10
1930.0761421319800775
 20
82.2335025380710505
 30
0.0
 40
150.0
  1
平面
  7
MS_ゴシック
  0
ENDBLK
  5
EB62
  8
0
  0
BLOCK
  8
0
  2
*U78
 70
     1
 10
0.0
 20
0.0
 30
0.0
  3
*U78
  1

  0
TEXT
  5
EB64
  8
0___30
 10
1392.5761421319789406
 20
4162.2335025380707521
 30
0.0
 40
150.0
  1
平面
  7
MS_ゴシック
  0
ENDBLK
  5
EB66
  8
0
  0
BLOCK
  8
0
  2
*U79
 70
     1
 10
0.0
 20
0.0
 30
0.0
  3
*U79
  1

  0
TEXT
  5
EB68
  8
0___30
 10
3967.9568527918791006
 20
4162.2335025380707521
 30
0.0
 40
150.0
  1
正面
  7
MS_ゴシック
  0
ENDBLK
  5
EB6A
  8
0
  0
BLOCK
  8
0
  2
*U80
 70
     1
 10
0.0
 20
0.0
 30
0.0
  3
*U80
  1

  0
TEXT
  5
EB6C
  8
0___30
 10
7074.5139593908634197
 20
4160.3299492385749545
 30
0.0
 40
150.0
  1
側面
  7
MS_ゴシック
  0
ENDBLK
  5
EB6E
  8
0
  0
BLOCK
  8
0
  2
*U81
 70
     1
 10
0.0
 20
0.0
 30
0.0
  3
*U81
  1

  0
TEXT
  5
EB70
  8
0___30
 10
5580.4568527918772816
 20
82.2335025380710505
 30
0.0
 40
150.0
  1
正面
  7
MS_ゴシック
  0
ENDBLK
  5
EB72
  8
0
  0
BLOCK
  8
0
  2
*U82
 70
     1
 10
0.0
 20
0.0
 30
0.0
  3
*U82
  1

  0
TEXT
  5
EB74
  8
0___30
 10
9224.5139593908625102
 20
80.3299492385832252
 30
0.0
 40
150.0
  1
側面
  7
MS_ゴシック
  0
ENDBLK
  5
EB76
  8
0
  0
BLOCK
  8
0
  2
*U83
 70
     1
 10
0.0
 20
0.0
 30
0.0
  3
*U83
  1

  0
TEXT
  5
EB7D
  8
0
 10
4066.9416243654809477
 20
5233.286802030457693
 30
0.0
 40
75.0
  1
収納
  7
MS_ゴシック
  0
TEXT
  5
EB7E
  8
0
 10
3968.9086294416238161
 20
5134.048223350252556
 30
0.0
 40
75.0
  1
スペース
  7
MS_ゴシック
  0
ENDBLK
  5
EB80
  8
0
  0
BLOCK
  8
0
  2
*U84
 70
     1
 10
0.0
 20
0.0
 30
0.0
  3
*U84
  1

  0
SOLID
  5
EBAF
  8
0
  6
CONTINUOUS
 10
-1587.5000000000070486
 20
870.0
 30
0.0
 11
-1656.7820323027619906
 21
750.0
 31
0.0
 12
-1518.2179676972521065
 22
750.0
 32
0.0
 13
-1518.2179676972521065
 23
750.0
 33
0.0
210
0.0
220
0.0
230
-1.0
  0
LINE
  5
EBB0
  8
0
  6
CONTINUOUS
 10
1587.5000000000070486
 20
870.0
 30
0.0
 11
1656.7820323027619906
 21
750.0
 31
0.0
  0
LINE
  5
EBB1
  8
0
  6
CONTINUOUS
 10
1518.2179676972521065
 20
750.0
 30
0.0
 11
1587.5000000000070486
 21
870.0
 31
0.0
  0
ENDBLK
  5
EBB3
  8
0
  0
BLOCK
  8
0
  2
*U85
 70
     1
 10
0.0
 20
0.0
 30
0.0
  3
*U85
  1

  0
SOLID
  5
EBCE
  8
0
  6
CONTINUOUS
 10
-2662.5000000000081855
 20
870.0
 30
0.0
 11
-2731.7820323027631275
 21
750.0
 31
0.0
 12
-2593.2179676972518791
 22
750.0
 32
0.0
 13
-2593.2179676972518791
 23
750.0
 33
0.0
210
0.0
220
0.0
230
-1.0
  0
LINE
  5
EBCF
  8
0
  6
CONTINUOUS
 10
2662.5000000000081855
 20
870.0
 30
0.0
 11
2731.7820323027631275
 21
750.0
 31
0.0
  0
LINE
  5
EBD0
  8
0
  6
CONTINUOUS
 10
2593.2179676972518791
 20
750.0
 30
0.0
 11
2662.5000000000081855
 21
870.0
 31
0.0
  0
ENDBLK
  5
EBD2
  8
0
  0
BLOCK
  8
0
  2
*U86
 70
     1
 10
0.0
 20
0.0
 30
0.0
  3
*U86
  1

  0
SOLID
  5
EBE3
  8
0
  6
CONTINUOUS
 10
-1587.5000000000070486
 20
4950.0
 30
0.0
 11
-1656.7820323027629001
 21
4830.0
 31
0.0
 12
-1518.2179676972521065
 22
4830.0
 32
0.0
 13
-1518.2179676972521065
 23
4830.0
 33
0.0
210
0.0
220
0.0
230
-1.0
  0
LINE
  5
EBE4
  8
0
  6
CONTINUOUS
 10
1587.5000000000070486
 20
4950.0
 30
0.0
 11
1656.7820323027629001
 21
4830.0
 31
0.0
  0
LINE
  5
EBE5
  8
0
  6
CONTINUOUS
 10
1518.2179676972521065
 20
4830.0
 30
0.0
 11
1587.5000000000070486
 21
4950.0
 31
0.0
  0
ENDBLK
  5
EBE7
  8
0
  0
BLOCK
  8
0
  2
*U87
 70
     1
 10
0.0
 20
0.0
 30
0.0
  3
*U87
  1

  0
TEXT
  5
EBEE
  8
0
 10
5141.941624365482312
 20
1153.2868020304561014
 30
0.0
 40
75.0
  1
収納
  7
MS_ゴシック
  0
TEXT
  5
EBEF
  8
0
 10
5043.9086294416247256
 20
1054.0482233502539202
 30
0.0
 40
75.0
  1
スペース
  7
MS_ゴシック
  0
ENDBLK
  5
EBF1
  8
0
  0
BLOCK
  8
0
  2
*U88
 70
     1
 10
0.0
 20
0.0
 30
0.0
  3
*U88
  1

  0
TEXT
  5
EBF3
  8
0
 10
6216.941624365482312
 20
1153.2868020304561014
 30
0.0
 40
75.0
  1
収納
  7
MS_ゴシック
  0
TEXT
  5
EBF4
  8
0
 10
6118.9086294416247256
 20
1054.0482233502539202
 30
0.0
 40
75.0
  1
スペース
  7
MS_ゴシック
  0
ENDBLK
  5
EBF6
  8
0
  0
BLOCK
  8
0
  2
*U89
 70
     1
 10
0.0
 20
0.0
 30
0.0
  3
*U89
  1

  0
SOLID
  5
ED75
  8
0
  6
CONTINUOUS
 10
-8200.0
 20
2111.7820323027649465
 30
0.0
 11
-8320.0
 21
2042.5000000000100044
 31
0.0
 12
-8200.0
 22
2042.5000000000100044
 32
0.0
 13
-8200.0
 23
2042.5000000000100044
 33
0.0
210
0.0
220
0.0
230
-1.0
  0
SOLID
  5
ED76
  8
0
  6
CONTINUOUS
 10
-8200.0
 20
2042.5000000000100044
 30
0.0
 11
-8320.0
 21
2042.5000000000100044
 31
0.0
 12
-8200.0
 22
1973.2179676972539255
 32
0.0
 13
-8200.0
 23
1973.2179676972539255
 33
0.0
210
0.0
220
0.0
230
-1.0
  0
LINE
  5
ED77
  8
0
  6
CONTINUOUS
 10
8200.0
 20
2111.7820323027649465
 30
0.0
 11
8320.0
 21
2042.5000000000100044
 31
0.0
  0
LINE
  5
ED78
  8
0
  6
CONTINUOUS
 10
8200.0
 20
2042.5000000000100044
 30
0.0
 11
8200.0
 21
2111.7820323027649465
 31
0.0
  0
LINE
  5
ED79
  8
0
  6
CONTINUOUS
 10
8320.0
 20
2042.5000000000100044
 30
0.0
 11
8200.0
 21
1973.2179676972539255
 31
0.0
  0
LINE
  5
ED7A
  8
0
  6
CONTINUOUS
 10
8200.0
 20
1973.2179676972539255
 30
0.0
 11
8200.0
 21
2042.5000000000100044
 31
0.0
  0
ENDBLK
  5
ED7C
  8
0
  0
BLOCK
  8
0
  2
*U90
 70
     1
 10
0.0
 20
0.0
 30
0.0
  3
*U90
  1

  0
SOLID
  5
ED83
  8
0
  6
CONTINUOUS
 10
-6050.0
 20
6191.7820323027553968
 30
0.0
 11
-6170.0
 21
6122.5000000000009095
 31
0.0
 12
-6050.0
 22
6122.5000000000009095
 32
0.0
 13
-6050.0
 23
6122.5000000000009095
 33
0.0
210
0.0
220
0.0
230
-1.0
  0
SOLID
  5
ED84
  8
0
  6
CONTINUOUS
 10
-6050.0
 20
6122.5000000000009095
 30
0.0
 11
-6170.0
 21
6122.5000000000009095
 31
0.0
 12
-6050.0
 22
6053.2179676972446032
 32
0.0
 13
-6050.0
 23
6053.2179676972446032
 33
0.0
210
0.0
220
0.0
230
-1.0
  0
LINE
  5
ED85
  8
0
  6
CONTINUOUS
 10
6050.0
 20
6191.7820323027553968
 30
0.0
 11
6170.0
 21
6122.5000000000009095
 31
0.0
  0
LINE
  5
ED86
  8
0
  6
CONTINUOUS
 10
6050.0
 20
6122.5000000000009095
 30
0.0
 11
6050.0
 21
6191.7820323027553968
 31
0.0
  0
LINE
  5
ED87
  8
0
  6
CONTINUOUS
 10
6170.0
 20
6122.5000000000009095
 30
0.0
 11
6050.0
 21
6053.2179676972446032
 31
0.0
  0
LINE
  5
ED88
  8
0
  6
CONTINUOUS
 10
6050.0
 20
6053.2179676972446032
 30
0.0
 11
6050.0
 21
6122.5000000000009095
 31
0.0
  0
ENDBLK
  5
ED8A
  8
0
  0
BLOCK
  8
0
  2
*D91
 70
     1
 10
0.0
 20
0.0
 30
0.0
  3
*D91
  1

  0
LINE
  5
F038
  8
0___30
 62
     0
 10
1048.125
 20
900.0000000000006821
 30
0.0
 11
744.5999997434945499
 21
900.0000000000004547
 31
0.0
  0
LINE
  5
F039
  8
0___30
 62
     0
 10
1048.1249999999870397
 20
3030.5000000050567905
 30
0.0
 11
744.5999997434942088
 21
3030.5000000050567905
 31
0.0
  0
LINE
  5
F03A
  8
0___30
 62
     0
 10
749.9999997434946408
 20
905.4000000000005457
 30
0.0
 11
749.9999997434944135
 21
1959.8500000025289864
 31
0.0
  0
LINE
  5
F03B
  8
0___30
 62
     0
 10
749.9999997434940724
 20
3025.1000000050571543
 30
0.0
 11
749.9999997434944135
 21
1970.650000002528941
 31
0.0
  0
SOLID
  5
F03C
  8
0___30
 62
     0
 10
749.0999997434945499
 20
905.4000000000005457
 30
0.0
 11
750.8999997434946181
 21
905.4000000000005457
 31
0.0
 12
749.9999997434946408
 22
900.0000000000004547
 32
0.0
 13
749.9999997434946408
 23
900.0000000000004547
 33
0.0
  0
SOLID
  5
F03D
  8
0___30
 62
     0
 10
749.0999997434942088
 20
3025.1000000050571543
 30
0.0
 11
750.8999997434940497
 21
3025.1000000050571543
 31
0.0
 12
749.9999997434940724
 22
3030.5000000050567905
 32
0.0
 13
749.9999997434940724
 23
3030.5000000050567905
 33
0.0
  0
TEXT
  8
0___30
  40
5.4
  5
F3AD
  62
0
  72
0
  71
0
 10
739.200
 20
1955.69
 30
0.00000
  1
2130.5000
  7
MS_ゴシック
  0
POINT
  5
F03F
  8
DEFPOINTS
 62
     0
 10
1050.0
 20
900.0000000000006821
 30
0.0
  0
POINT
  5
F040
  8
DEFPOINTS
 62
     0
 10
1049.9999999999870397
 20
3030.5000000050567905
 30
0.0
  0
POINT
  5
F041
  8
DEFPOINTS
 62
     0
 10
749.9999997434940724
 20
3030.5000000050567905
 30
0.0
  0
ENDBLK
  5
F037
  8
0
  0
BLOCK
  8
0
  2
*D92
 70
     1
 10
0.0
 20
0.0
 30
0.0
  3
*D92
  1

  0
LINE
  5
F045
  8
0___30
 62
     0
 10
1048.1249999999899956
 20
3093.0000000831209945
 30
0.0
 11
744.5999997434940951
 21
3093.0000000831209945
 31
0.0
  0
LINE
  5
F046
  8
0___30
 62
     0
 10
1048.1249999999870397
 20
3030.5000000050567905
 30
0.0
 11
744.5999997434940951
 21
3030.5000000050567905
 31
0.0
  0
LINE
  5
F047
  8
0___30
 62
     0
 10
749.9999997434939587
 20
3087.6000000831209036
 30
0.0
 11
749.9999997434939587
 21
3035.9000000050568815
 31
0.0
  0
LINE
  5
F048
  8
0___30
 62
     0
 10
744.5999997434940951
 20
3242.9945618432830088
 30
0.0
 11
749.9999997434939587
 21
3242.9945618432830088
 31
0.0
  0
LINE
  5
F049
  8
0___30
 62
     0
 10
749.9999997434939587
 20
3242.9945618432830088
 30
0.0
 11
749.9999997434939587
 21
3093.0000000831209945
 31
0.0
  0
TEXT
  8
0___30
  40
5.4
  5
F3AE
  62
0
  72
0
  71
0
 10
716.250
 20
3233.44
 30
0.00000
  1
62.5000
  7
MS_ゴシック
  0
SOLID
  5
F04B
  8
0___30
 62
     0
 10
749.0999997434940951
 20
3087.6000000831209036
 30
0.0
 11
750.8999997434940497
 21
3087.6000000831209036
 31
0.0
 12
749.9999997434939587
 22
3093.0000000831209945
 32
0.0
 13
749.9999997434939587
 23
3093.0000000831209945
 33
0.0
  0
SOLID
  5
F04C
  8
0___30
 62
     0
 10
749.0999997434940951
 20
3035.9000000050568815
 30
0.0
 11
750.8999997434940497
 21
3035.9000000050568815
 31
0.0
 12
749.9999997434939587
 22
3030.5000000050567905
 32
0.0
 13
749.9999997434939587
 23
3030.5000000050567905
 33
0.0
  0
POINT
  5
F04D
  8
DEFPOINTS
 62
     0
 10
1049.9999999999899956
 20
3093.0000000831209945
 30
0.0
  0
POINT
  5
F04E
  8
DEFPOINTS
 62
     0
 10
1049.9999999999870397
 20
3030.5000000050567905
 30
0.0
  0
POINT
  5
F04F
  8
DEFPOINTS
 62
     0
 10
749.9999997434939587
 20
3030.5000000050567905
 30
0.0
  0
ENDBLK
  5
F044
  8
0
  0
BLOCK
  8
0
  2
*D93
 70
     1
 10
0.0
 20
0.0
 30
0.0
  3
*D93
  1

  0
LINE
  5
F058
  8
0___30
 62
     0
 10
6200.0
 20
4978.1249999999918145
 30
0.0
 11
6200.0
 21
4704.5999999999912689
 31
0.0
  0
LINE
  5
F059
  8
0___30
 62
     0
 10
8330.5
 20
4978.1249999999918145
 30
0.0
 11
8330.5
 21
4704.5999999999912689
 31
0.0
  0
LINE
  5
F05A
  8
0___30
 62
     0
 10
6205.3999999999996362
 20
4709.9999999999909051
 30
0.0
 11
7243.6499999999987267
 21
4709.9999999999909051
 31
0.0
  0
LINE
  5
F05B
  8
0___30
 62
     0
 10
8325.1000000000003638
 20
4709.9999999999909051
 30
0.0
 11
7286.8500000000012733
 21
4709.9999999999909051
 31
0.0
  0
SOLID
  5
F05C
  8
0___30
 62
     0
 10
6205.3999999999996362
 20
4710.8999999999896318
 30
0.0
 11
6205.3999999999996362
 21
4709.0999999999912689
 31
0.0
 12
6200.0
 22
4709.9999999999909051
 32
0.0
 13
6200.0
 23
4709.9999999999909051
 33
0.0
  0
SOLID
  5
F05D
  8
0___30
 62
     0
 10
8325.1000000000003638
 20
4710.8999999999896318
 30
0.0
 11
8325.1000000000003638
 21
4709.0999999999912689
 31
0.0
 12
8330.5
 22
4709.9999999999909051
 32
0.0
 13
8330.5
 23
4709.9999999999909051
 33
0.0
  0
TEXT
  8
0___30
  40
5.4
  5
F3AF
  62
0
  72
0
  71
0
 10
7254.45
 20
4700.44
 30
0.00000
  1
2130.5000
  7
MS_ゴシック
  0
POINT
  5
F05F
  8
DEFPOINTS
 62
     0
 10
6200.0
 20
4979.9999999999918145
 30
0.0
  0
POINT
  5
F060
  8
DEFPOINTS
 62
     0
 10
8330.5
 20
4979.9999999999918145
 30
0.0
  0
POINT
  5
F061
  8
DEFPOINTS
 62
     0
 10
8330.5
 20
4709.9999999999909051
 30
0.0
  0
ENDBLK
  5
F057
  8
0
  0
BLOCK
  8
0
  2
*D94
 70
     1
 10
0.0
 20
0.0
 30
0.0
  3
*D94
  1

  0
LINE
  5
F065
  8
0___30
 62
     0
 10
1589.3749999999909051
 20
3093.0000000831209945
 30
0.0
 11
1592.9000000000050932
 21
3093.0000000831209945
 31
0.0
  0
LINE
  5
F066
  8
0___30
 62
     0
 10
1589.3749999999929514
 20
3023.0000000050567905
 30
0.0
 11
1592.9000000000050932
 21
3023.0000000050567905
 31
0.0
  0
LINE
  5
F067
  8
0___30
 62
     0
 10
1587.5000000000040927
 20
3087.6000000831209036
 30
0.0
 11
1587.5000000000040927
 21
3028.400000005057791
 31
0.0
  0
LINE
  5
F068
  8
0___30
 62
     0
 10
1582.1000000000049113
 20
3213.000000083121904
 30
0.0
 11
1587.5000000000040927
 21
3213.000000083121904
 31
0.0
  0
LINE
  5
F069
  8
0___30
 62
     0
 10
1587.5000000000040927
 20
3213.000000083121904
 30
0.0
 11
1587.5000000000040927
 21
3093.0000000831209945
 31
0.0
  0
TEXT
  8
0___30
  40
5.4
  5
F3B0
  62
0
  72
0
  71
0
 10
1554.65
 20
3203.44
 30
0.00000
  1
70.0000
  7
MS_ゴシック
  0
SOLID
  5
F06B
  8
0___30
 62
     0
 10
1586.6000000000049113
 20
3087.6000000831209036
 30
0.0
 11
1588.4000000000050932
 21
3087.6000000831209036
 31
0.0
 12
1587.5000000000040927
 22
3093.0000000831209945
 32
0.0
 13
1587.5000000000040927
 23
3093.0000000831209945
 33
0.0
  0
SOLID
  5
F06C
  8
0___30
 62
     0
 10
1586.6000000000049113
 20
3028.400000005057791
 30
0.0
 11
1588.4000000000050932
 21
3028.400000005057791
 31
0.0
 12
1587.5000000000040927
 22
3023.0000000050567905
 32
0.0
 13
1587.5000000000040927
 23
3023.0000000050567905
 33
0.0
  0
POINT
  5
F06D
  8
DEFPOINTS
 62
     0
 10
1587.4999999999909051
 20
3093.0000000831209945
 30
0.0
  0
POINT
  5
F06E
  8
DEFPOINTS
 62
     0
 10
1587.4999999999929514
 20
3023.0000000050567905
 30
0.0
  0
POINT
  5
F06F
  8
DEFPOINTS
 62
     0
 10
1587.5000000000040927
 20
3023.0000000050567905
 30
0.0
  0
ENDBLK
  5
F064
  8
0
  0
BLOCK
  8
0
  2
*D95
 70
     1
 10
0.0
 20
0.0
 30
0.0
  3
*D95
  1

  0
LINE
  5
F073
  8
0___30
 62
     0
 10
1044.9999999999899956
 20
3032.375000005055881
 30
0.0
 11
1044.9999999999899956
 21
3485.9000000050368726
 31
0.0
  0
LINE
  5
F074
  8
0___30
 62
     0
 10
1049.9999999999899956
 20
3032.375000005055881
 30
0.0
 11
1049.9999999999899956
 21
3485.9000000050368726
 31
0.0
  0
LINE
  5
F075
  8
0___30
 62
     0
 10
1039.5999999999899046
 20
3480.5000000050367817
 30
0.0
 11
1034.199999999990041
 21
3480.5000000050367817
 31
0.0
  0
LINE
  5
F076
  8
0___30
 62
     0
 10
1055.3999999999900865
 20
3480.5000000050367817
 30
0.0
 11
1060.7999999999899501
 21
3480.5000000050367817
 31
0.0
  0
LINE
  5
F077
  8
0___30
 62
     0
 10
939.3999999999904276
 20
3480.5000000050367817
 30
0.0
 11
1044.9999999999899956
 21
3480.5000000050367817
 31
0.0
  0
TEXT
  8
0___30
  40
5.4
  5
F3B1
  62
0
  72
0
  71
0
 10
914.200
 20
3470.94
 30
0.00000
  1
5.0000
  7
MS_ゴシック
  0
LINE
  5
F079
  8
0___30
 62
     0
 10
1044.9999999999899956
 20
3480.5000000050367817
 30
0.0
 11
1049.9999999999899956
 21
3480.5000000050367817
 31
0.0
  0
LINE
  5
F07A
  8
0___30
 62
     0
 10
1044.9999999999899956
 20
3480.5000000050367817
 30
0.0
 11
1049.9999999999899956
 21
3480.5000000050367817
 31
0.0
  0
SOLID
  5
F07B
  8
0___30
 62
     0
 10
1039.5999999999899046
 20
3481.4000000050377821
 30
0.0
 11
1039.5999999999899046
 21
3479.6000000050371455
 31
0.0
 12
1044.9999999999899956
 22
3480.5000000050367817
 32
0.0
 13
1044.9999999999899956
 23
3480.5000000050367817
 33
0.0
  0
SOLID
  5
F07C
  8
0___30
 62
     0
 10
1055.3999999999900865
 20
3481.4000000050377821
 30
0.0
 11
1055.3999999999900865
 21
3479.6000000050371455
 31
0.0
 12
1049.9999999999899956
 22
3480.5000000050367817
 32
0.0
 13
1049.9999999999899956
 23
3480.5000000050367817
 33
0.0
  0
POINT
  5
F07D
  8
DEFPOINTS
 62
     0
 10
1044.9999999999899956
 20
3030.5000000050567905
 30
0.0
  0
POINT
  5
F07E
  8
DEFPOINTS
 62
     0
 10
1049.9999999999899956
 20
3030.5000000050567905
 30
0.0
  0
POINT
  5
F07F
  8
DEFPOINTS
 62
     0
 10
1049.9999999999899956
 20
3480.5000000050367817
 30
0.0
  0
ENDBLK
  5
F072
  8
0
  0
BLOCK
  8
0
  2
*D96
 70
     1
 10
0.0
 20
0.0
 30
0.0
  3
*D96
  1

  0
LINE
  5
F083
  8
0___30
 62
     0
 10
3623.125000000001819
 20
4980.000000000001819
 30
0.0
 11
3319.6000000000399268
 21
4980.000000000001819
 31
0.0
  0
LINE
  5
F084
  8
0___30
 62
     0
 10
3623.125000000001819
 20
7265.000000000003638
 30
0.0
 11
3319.6000000000390173
 21
7265.000000000003638
 31
0.0
  0
LINE
  5
F085
  8
0___30
 62
     0
 10
3325.0000000000400178
 20
4985.4000000000023647
 30
0.0
 11
3325.0000000000391083
 21
6117.1000000000021828
 31
0.0
  0
LINE
  5
F086
  8
0___30
 62
     0
 10
3325.0000000000381988
 20
7259.6000000000049113
 30
0.0
 11
3325.0000000000391083
 21
6127.9000000000023647
 31
0.0
  0
SOLID
  5
F087
  8
0___30
 62
     0
 10
3324.1000000000399268
 20
4985.4000000000023647
 30
0.0
 11
3325.9000000000401087
 21
4985.4000000000023647
 31
0.0
 12
3325.0000000000400178
 22
4980.000000000001819
 32
0.0
 13
3325.0000000000400178
 23
4980.000000000001819
 33
0.0
  0
SOLID
  5
F088
  8
0___30
 62
     0
 10
3324.1000000000390173
 20
7259.6000000000049113
 30
0.0
 11
3325.9000000000391992
 21
7259.6000000000049113
 31
0.0
 12
3325.0000000000381988
 22
7265.000000000003638
 32
0.0
 13
3325.0000000000381988
 23
7265.000000000003638
 33
0.0
  0
TEXT
  8
0___30
  40
5.4
  5
F3B2
  62
0
  72
0
  71
0
 10
3314.20
 20
6112.94
 30
0.00000
  1
2285.0000
  7
MS_ゴシック
  0
POINT
  5
F08A
  8
DEFPOINTS
 62
     0
 10
3625.000000000001819
 20
4980.000000000001819
 30
0.0
  0
POINT
  5
F08B
  8
DEFPOINTS
 62
     0
 10
3625.000000000001819
 20
7265.000000000003638
 30
0.0
  0
POINT
  5
F08C
  8
DEFPOINTS
 62
     0
 10
3325.0000000000381988
 20
7265.000000000003638
 30
0.0
  0
ENDBLK
  5
F082
  8
0
  0
BLOCK
  8
0
  2
*D97
 70
     1
 10
0.0
 20
0.0
 30
0.0
  3
*D97
  1

  0
LINE
  5
F090
  8
0___30
 62
     0
 10
3623.125000000001819
 20
4980.000000000001819
 30
0.0
 11
3319.6000000000408363
 21
4980.000000000001819
 31
0.0
  0
LINE
  5
F091
  8
0___30
 62
     0
 10
3660.6250000050581548
 20
4949.9999999999954525
 30
0.0
 11
3319.6000000000408363
 21
4949.9999999999954525
 31
0.0
  0
LINE
  5
F092
  8
0___30
 62
     0
 10
3325.0000000000409273
 20
4974.6000000000021828
 30
0.0
 11
3325.0000000000409273
 21
4955.3999999999950887
 31
0.0
  0
LINE
  5
F093
  8
0___30
 62
     0
 10
3319.6000000000408363
 20
4829.9999999999936335
 30
0.0
 11
3325.0000000000409273
 21
4829.9999999999936335
 31
0.0
  0
LINE
  5
F094
  8
0___30
 62
     0
 10
3325.0000000000409273
 20
4829.9999999999936335
 30
0.0
 11
3325.0000000000409273
 21
4949.9999999999954525
 31
0.0
  0
TEXT
  8
0___30
  40
5.4
  5
F3B3
  62
0
  72
0
  71
0
 10
3292.15
 20
4820.44
 30
0.00000
  1
30.0000
  7
MS_ゴシック
  0
SOLID
  5
F096
  8
0___30
 62
     0
 10
3324.1000000000408363
 20
4974.6000000000021828
 30
0.0
 11
3325.9000000000419277
 21
4974.6000000000021828
 31
0.0
 12
3325.0000000000409273
 22
4980.000000000001819
 32
0.0
 13
3325.0000000000409273
 23
4980.000000000001819
 33
0.0
  0
SOLID
  5
F097
  8
0___30
 62
     0
 10
3324.1000000000408363
 20
4955.3999999999950887
 30
0.0
 11
3325.9000000000419277
 21
4955.3999999999950887
 31
0.0
 12
3325.0000000000409273
 22
4949.9999999999954525
 32
0.0
 13
3325.0000000000409273
 23
4949.9999999999954525
 33
0.0
  0
POINT
  5
F098
  8
DEFPOINTS
 62
     0
 10
3625.000000000001819
 20
4980.000000000001819
 30
0.0
  0
POINT
  5
F099
  8
DEFPOINTS
 62
     0
 10
3662.5000000050590643
 20
4949.9999999999954525
 30
0.0
  0
POINT
  5
F09A
  8
DEFPOINTS
 62
     0
 10
3325.0000000000409273
 20
4949.9999999999954525
 30
0.0
  0
ENDBLK
  5
F08F
  8
0
  0
BLOCK
  8
0
  2
*D98
 70
     1
 10
0.0
 20
0.0
 30
0.0
  3
*D98
  1

  0
LINE
  5
F09E
  8
0___30
 62
     0
 10
3660.6250000050581548
 20
4949.9999999999954525
 30
0.0
 11
3169.6000000000390173
 21
4949.9999999999954525
 31
0.0
  0
LINE
  5
F09F
  8
0___30
 62
     0
 10
3623.125000000001819
 20
7265.000000000003638
 30
0.0
 11
3169.6000000000381078
 21
7265.000000000003638
 31
0.0
  0
LINE
  5
F0A0
  8
0___30
 62
     0
 10
3175.0000000000391083
 20
4955.3999999999950887
 30
0.0
 11
3175.0000000000381988
 21
6102.1000000000003638
 31
0.0
  0
LINE
  5
F0A1
  8
0___30
 62
     0
 10
3175.0000000000381988
 20
7259.6000000000049113
 30
0.0
 11
3175.0000000000381988
 21
6112.8999999999987267
 31
0.0
  0
SOLID
  5
F0A2
  8
0___30
 62
     0
 10
3174.1000000000390173
 20
4955.3999999999950887
 30
0.0
 11
3175.9000000000391992
 21
4955.3999999999950887
 31
0.0
 12
3175.0000000000391083
 22
4949.9999999999954525
 32
0.0
 13
3175.0000000000391083
 23
4949.9999999999954525
 33
0.0
  0
SOLID
  5
F0A3
  8
0___30
 62
     0
 10
3174.1000000000381078
 20
7259.6000000000049113
 30
0.0
 11
3175.900000000037835
 21
7259.6000000000049113
 31
0.0
 12
3175.0000000000381988
 22
7265.000000000003638
 32
0.0
 13
3175.0000000000381988
 23
7265.000000000003638
 33
0.0
  0
TEXT
  8
0___30
  40
5.4
  5
F3B4
  62
0
  72
0
  71
0
 10
3164.20
 20
6097.94
 30
0.00000
  1
2315.0000
  7
MS_ゴシック
  0
POINT
  5
F0A5
  8
DEFPOINTS
 62
     0
 10
3662.5000000050590643
 20
4949.9999999999954525
 30
0.0
  0
POINT
  5
F0A6
  8
DEFPOINTS
 62
     0
 10
3625.000000000001819
 20
7265.000000000003638
 30
0.0
  0
POINT
  5
F0A7
  8
DEFPOINTS
 62
     0
 10
3175.0000000000381988
 20
7265.000000000003638
 30
0.0
  0
ENDBLK
  5
F09D
  8
0
  0
BLOCK
  8
0
  2
*D99
 70
     1
 10
0.0
 20
0.0
 30
0.0
  3
*D99
  1

  0
LINE
  5
F0C9
  8
0___30
 62
     0
 10
4700.0
 20
868.1250000000002274
 30
0.0
 11
4700.0
 21
474.600000000000307
 31
0.0
  0
LINE
  5
F0CA
  8
0___30
 62
     0
 10
6850.0
 20
868.1250000000002274
 30
0.0
 11
6850.0
 21
474.600000000000307
 31
0.0
  0
LINE
  5
F0CB
  8
0___30
 62
     0
 10
4705.3999999999996362
 20
480.0000000000003979
 30
0.0
 11
5753.8500000000003638
 21
480.0000000000003979
 31
0.0
  0
LINE
  5
F0CC
  8
0___30
 62
     0
 10
6844.6000000000012733
 20
480.0000000000003979
 30
0.0
 11
5796.1499999999996362
 21
480.0000000000003979
 31
0.0
  0
SOLID
  5
F0CD
  8
0___30
 62
     0
 10
4705.3999999999996362
 20
480.9000000000003183
 30
0.0
 11
4705.3999999999996362
 21
479.100000000000307
 31
0.0
 12
4700.0
 22
480.0000000000003979
 32
0.0
 13
4700.0
 23
480.0000000000003979
 33
0.0
  0
SOLID
  5
F0CE
  8
0___30
 62
     0
 10
6844.6000000000012733
 20
480.9000000000003183
 30
0.0
 11
6844.6000000000012733
 21
479.100000000000307
 31
0.0
 12
6850.0
 22
480.0000000000003979
 32
0.0
 13
6850.0
 23
480.0000000000003979
 33
0.0
  0
TEXT
  8
0___30
  40
5.4
  5
F3B5
  62
0
  72
0
  71
0
 10
5764.20
 20
470.442
 30
0.00000
  1
2150.0000
  7
MS_ゴシック
  0
POINT
  5
F0D0
  8
DEFPOINTS
 62
     0
 10
4700.0
 20
870.0000000000002274
 30
0.0
  0
POINT
  5
F0D1
  8
DEFPOINTS
 62
     0
 10
6850.0
 20
870.0000000000002274
 30
0.0
  0
POINT
  5
F0D2
  8
DEFPOINTS
 62
     0
 10
6850.0
 20
480.0000000000003979
 30
0.0
  0
ENDBLK
  5
F0C8
  8
0
  0
BLOCK
  8
0
  2
*D100
 70
     1
 10
0.0
 20
0.0
 30
0.0
  3
*D100
  1

  0
LINE
  5
F0D6
  8
0___30
 62
     0
 10
4698.1250000000009095
 20
900.0000000000006821
 30
0.0
 11
4394.6000000000358341
 21
900.0000000000006821
 31
0.0
  0
LINE
  5
F0D7
  8
0___30
 62
     0
 10
4698.1250000000009095
 20
3170.0000000000031832
 30
0.0
 11
4394.6000000000358341
 21
3170.0000000000031832
 31
0.0
  0
LINE
  5
F0D8
  8
0___30
 62
     0
 10
4400.0000000000363798
 20
905.4000000000006594
 30
0.0
 11
4400.0000000000363798
 21
2029.6000000000019554
 31
0.0
  0
LINE
  5
F0D9
  8
0___30
 62
     0
 10
4400.0000000000345608
 20
3164.6000000000021828
 30
0.0
 11
4400.0000000000363798
 21
2040.4000000000010004
 31
0.0
  0
SOLID
  5
F0DA
  8
0___30
 62
     0
 10
4399.1000000000367436
 20
905.4000000000006594
 30
0.0
 11
4400.900000000036016
 21
905.4000000000006594
 31
0.0
 12
4400.0000000000363798
 22
900.0000000000006821
 32
0.0
 13
4400.0000000000363798
 23
900.0000000000006821
 33
0.0
  0
SOLID
  5
F0DB
  8
0___30
 62
     0
 10
4399.1000000000358341
 20
3164.6000000000021828
 30
0.0
 11
4400.900000000034197
 21
3164.6000000000021828
 31
0.0
 12
4400.0000000000345608
 22
3170.0000000000031832
 32
0.0
 13
4400.0000000000345608
 23
3170.0000000000031832
 33
0.0
  0
TEXT
  8
0___30
  40
5.4
  5
F3B6
  62
0
  72
0
  71
0
 10
4389.20
 20
2025.44
 30
0.00000
  1
2270.0000
  7
MS_ゴシック
  0
POINT
  5
F0DD
  8
DEFPOINTS
 62
     0
 10
4700.0000000000009095
 20
900.0000000000006821
 30
0.0
  0
POINT
  5
F0DE
  8
DEFPOINTS
 62
     0
 10
4700.0000000000009095
 20
3170.0000000000031832
 30
0.0
  0
POINT
  5
F0DF
  8
DEFPOINTS
 62
     0
 10
4400.0000000000345608
 20
3170.0000000000031832
 30
0.0
  0
ENDBLK
  5
F0D5
  8
0
  0
BLOCK
  8
0
  2
*D101
 70
     1
 10
0.0
 20
0.0
 30
0.0
  3
*D101
  1

  0
LINE
  5
F0E3
  8
0___30
 62
     0
 10
4698.1250000000009095
 20
900.0000000000006821
 30
0.0
 11
4394.6000000000403816
 21
900.0000000000006821
 31
0.0
  0
LINE
  5
F0E4
  8
0___30
 62
     0
 10
4698.1250000000009095
 20
870.0000000000005684
 30
0.0
 11
4394.6000000000403816
 21
870.0000000000005684
 31
0.0
  0
LINE
  5
F0E5
  8
0___30
 62
     0
 10
4400.0000000000400178
 20
894.6000000000005912
 30
0.0
 11
4400.0000000000400178
 21
875.4000000000005457
 31
0.0
  0
LINE
  5
F0E6
  8
0___30
 62
     0
 10
4394.6000000000403816
 20
749.9999999999943157
 30
0.0
 11
4400.0000000000400178
 21
749.9999999999943157
 31
0.0
  0
LINE
  5
F0E7
  8
0___30
 62
     0
 10
4400.0000000000400178
 20
749.9999999999943157
 30
0.0
 11
4400.0000000000400178
 21
870.0000000000005684
 31
0.0
  0
TEXT
  8
0___30
  40
5.4
  5
F3B7
  62
0
  72
0
  71
0
 10
4367.15
 20
740.442
 30
0.00000
  1
30.0000
  7
MS_ゴシック
  0
SOLID
  5
F0E9
  8
0___30
 62
     0
 10
4399.1000000000403816
 20
894.6000000000005912
 30
0.0
 11
4400.900000000039654
 21
894.6000000000005912
 31
0.0
 12
4400.0000000000400178
 22
900.0000000000006821
 32
0.0
 13
4400.0000000000400178
 23
900.0000000000006821
 33
0.0
  0
SOLID
  5
F0EA
  8
0___30
 62
     0
 10
4399.1000000000403816
 20
875.4000000000005457
 30
0.0
 11
4400.900000000039654
 21
875.4000000000005457
 31
0.0
 12
4400.0000000000400178
 22
870.0000000000005684
 32
0.0
 13
4400.0000000000400178
 23
870.0000000000005684
 33
0.0
  0
POINT
  5
F0EB
  8
DEFPOINTS
 62
     0
 10
4700.0000000000009095
 20
900.0000000000006821
 30
0.0
  0
POINT
  5
F0EC
  8
DEFPOINTS
 62
     0
 10
4700.0000000000009095
 20
870.0000000000005684
 30
0.0
  0
POINT
  5
F0ED
  8
DEFPOINTS
 62
     0
 10
4400.0000000000400178
 20
870.0000000000005684
 30
0.0
  0
ENDBLK
  5
F0E2
  8
0
  0
BLOCK
  8
0
  2
*D102
 70
     1
 10
0.0
 20
0.0
 30
0.0
  3
*D102
  1

  0
LINE
  5
F0F1
  8
0___30
 62
     0
 10
4735.6250000050567905
 20
869.9999999999953388
 30
0.0
 11
4244.6000000000358341
 21
869.9999999999953388
 31
0.0
  0
LINE
  5
F0F2
  8
0___30
 62
     0
 10
4698.1250000000009095
 20
3169.9999999999990905
 30
0.0
 11
4244.6000000000358341
 21
3169.9999999999990905
 31
0.0
  0
LINE
  5
F0F3
  8
0___30
 62
     0
 10
4250.0000000000363798
 20
875.3999999999950887
 30
0.0
 11
4250.0000000000363798
 21
2014.5999999999969532
 31
0.0
  0
LINE
  5
F0F4
  8
0___30
 62
     0
 10
4250.0000000000345608
 20
3164.5999999999989996
 30
0.0
 11
4250.0000000000363798
 21
2025.3999999999969077
 31
0.0
  0
SOLID
  5
F0F5
  8
0___30
 62
     0
 10
4249.1000000000358341
 20
875.3999999999950887
 30
0.0
 11
4250.900000000036016
 21
875.3999999999950887
 31
0.0
 12
4250.0000000000363798
 22
869.9999999999953388
 32
0.0
 13
4250.0000000000363798
 23
869.9999999999953388
 33
0.0
  0
SOLID
  5
F0F6
  8
0___30
 62
     0
 10
4249.1000000000358341
 20
3164.5999999999989996
 30
0.0
 11
4250.9000000000351065
 21
3164.5999999999989996
 31
0.0
 12
4250.0000000000345608
 22
3169.9999999999990905
 32
0.0
 13
4250.0000000000345608
 23
3169.9999999999990905
 33
0.0
  0
TEXT
  8
0___30
  40
5.4
  5
F3B8
  62
0
  72
0
  71
0
 10
4239.20
 20
2010.44
 30
0.00000
  1
2300.0000
  7
MS_ゴシック
  0
POINT
  5
F0F8
  8
DEFPOINTS
 62
     0
 10
4737.5000000050567905
 20
869.9999999999953388
 30
0.0
  0
POINT
  5
F0F9
  8
DEFPOINTS
 62
     0
 10
4700.0000000000009095
 20
3169.9999999999990905
 30
0.0
  0
POINT
  5
F0FA
  8
DEFPOINTS
 62
     0
 10
4250.0000000000345608
 20
3169.9999999999990905
 30
0.0
  0
ENDBLK
  5
F0F0
  8
0
  0
BLOCK
  8
0
  2
*D103
 70
     1
 10
0.0
 20
0.0
 30
0.0
  3
*D103
  1

  0
LINE
  5
F0FE
  8
0___30
 62
     0
 10
3199.9999999999931788
 20
3032.375000005055881
 30
0.0
 11
3199.9999999999931788
 21
3485.9000000050368726
 31
0.0
  0
LINE
  5
F0FF
  8
0___30
 62
     0
 10
1049.9999999999920419
 20
3032.375000005055881
 30
0.0
 11
1049.9999999999920419
 21
3485.9000000050368726
 31
0.0
  0
LINE
  5
F100
  8
0___30
 62
     0
 10
3194.5999999999930878
 20
3480.5000000050367817
 30
0.0
 11
2146.149999999992815
 21
3480.5000000050367817
 31
0.0
  0
LINE
  5
F101
  8
0___30
 62
     0
 10
1055.3999999999930424
 20
3480.5000000050367817
 30
0.0
 11
2103.8499999999930878
 21
3480.5000000050367817
 31
0.0
  0
SOLID
  5
F102
  8
0___30
 62
     0
 10
3194.5999999999930878
 20
3481.4000000050377821
 30
0.0
 11
3194.5999999999930878
 21
3479.6000000050371455
 31
0.0
 12
3199.9999999999931788
 22
3480.5000000050367817
 32
0.0
 13
3199.9999999999931788
 23
3480.5000000050367817
 33
0.0
  0
SOLID
  5
F103
  8
0___30
 62
     0
 10
1055.3999999999930424
 20
3481.4000000050377821
 30
0.0
 11
1055.3999999999930424
 21
3479.6000000050371455
 31
0.0
 12
1049.9999999999920419
 22
3480.5000000050367817
 32
0.0
 13
1049.9999999999920419
 23
3480.5000000050367817
 33
0.0
  0
TEXT
  8
0___30
  40
5.4
  5
F3B9
  62
0
  72
0
  71
0
 10
2114.20
 20
3470.94
 30
0.00000
  1
2150.0000
  7
MS_ゴシック
  0
POINT
  5
F105
  8
DEFPOINTS
 62
     0
 10
3199.9999999999931788
 20
3030.5000000050567905
 30
0.0
  0
POINT
  5
F106
  8
DEFPOINTS
 62
     0
 10
1049.9999999999920419
 20
3030.5000000050567905
 30
0.0
  0
POINT
  5
F107
  8
DEFPOINTS
 62
     0
 10
1049.9999999999920419
 20
3480.5000000050367817
 30
0.0
  0
ENDBLK
  5
F0FD
  8
0
  0
BLOCK
  8
0
  2
*D104
 70
     1
 10
0.0
 20
0.0
 30
0.0
  3
*D104
  1

  0
LINE
  5
F10B
  8
0___30
 62
     0
 10
2125.0000000000031832
 20
898.1250000000001137
 30
0.0
 11
2125.0000000000031832
 21
444.6000000000199179
 31
0.0
  0
LINE
  5
F10C
  8
0___30
 62
     0
 10
1050.0000000000009095
 20
898.1250000000001137
 30
0.0
 11
1050.0000000000009095
 21
444.6000000000199179
 31
0.0
  0
LINE
  5
F10D
  8
0___30
 62
     0
 10
2119.6000000000030923
 20
450.0000000000197815
 30
0.0
 11
1608.6500000000019099
 21
450.0000000000197815
 31
0.0
  0
LINE
  5
F10E
  8
0___30
 62
     0
 10
1055.4000000000010004
 20
450.0000000000197815
 30
0.0
 11
1566.3500000000019554
 21
450.0000000000197815
 31
0.0
  0
SOLID
  5
F10F
  8
0___30
 62
     0
 10
2119.6000000000030923
 20
450.9000000000198156
 30
0.0
 11
2119.6000000000030923
 21
449.1000000000199179
 31
0.0
 12
2125.0000000000031832
 22
450.0000000000197815
 32
0.0
 13
2125.0000000000031832
 23
450.0000000000197815
 33
0.0
  0
SOLID
  5
F110
  8
0___30
 62
     0
 10
1055.4000000000010004
 20
450.9000000000198156
 30
0.0
 11
1055.4000000000010004
 21
449.1000000000199179
 31
0.0
 12
1050.0000000000009095
 22
450.0000000000197815
 32
0.0
 13
1050.0000000000009095
 23
450.0000000000197815
 33
0.0
  0
TEXT
  8
0___30
  40
5.4
  5
F3BA
  62
0
  72
0
  71
0
 10
1576.70
 20
440.442
 30
0.00000
  1
1075.0000
  7
MS_ゴシック
  0
POINT
  5
F112
  8
DEFPOINTS
 62
     0
 10
2125.0000000000031832
 20
900.0
 30
0.0
  0
POINT
  5
F113
  8
DEFPOINTS
 62
     0
 10
1050.0000000000009095
 20
900.0
 30
0.0
  0
POINT
  5
F114
  8
DEFPOINTS
 62
     0
 10
1050.0000000000009095
 20
450.0000000000197815
 30
0.0
  0
ENDBLK
  5
F10A
  8
0
  0
BLOCK
  8
0
  2
*D105
 70
     1
 10
0.0
 20
0.0
 30
0.0
  3
*D105
  1

  0
LINE
  5
F118
  8
0___30
 62
     0
 10
2125.0000000000031832
 20
898.1250000000001137
 30
0.0
 11
2125.0000000000031832
 21
444.6000000000199179
 31
0.0
  0
LINE
  5
F119
  8
0___30
 62
     0
 10
3200.0
 20
898.1250000002212346
 30
0.0
 11
3200.0
 21
444.6000000000199179
 31
0.0
  0
LINE
  5
F11A
  8
0___30
 62
     0
 10
2130.4000000000028194
 20
450.0000000000197815
 30
0.0
 11
2641.3500000000021828
 21
450.0000000000197815
 31
0.0
  0
LINE
  5
F11B
  8
0___30
 62
     0
 10
3194.5999999999999091
 20
450.0000000000197815
 30
0.0
 11
2683.6500000000019099
 21
450.0000000000197815
 31
0.0
  0
SOLID
  5
F11C
  8
0___30
 62
     0
 10
2130.4000000000028194
 20
450.9000000000198156
 30
0.0
 11
2130.4000000000028194
 21
449.1000000000199179
 31
0.0
 12
2125.0000000000031832
 22
450.0000000000197815
 32
0.0
 13
2125.0000000000031832
 23
450.0000000000197815
 33
0.0
  0
SOLID
  5
F11D
  8
0___30
 62
     0
 10
3194.5999999999999091
 20
450.9000000000198156
 30
0.0
 11
3194.5999999999999091
 21
449.1000000000199179
 31
0.0
 12
3200.0
 22
450.0000000000197815
 32
0.0
 13
3200.0
 23
450.0000000000197815
 33
0.0
  0
TEXT
  8
0___30
  40
5.4
  5
F3BB
  62
0
  72
0
  71
0
 10
2651.70
 20
440.442
 30
0.00000
  1
1075.0000
  7
MS_ゴシック
  0
POINT
  5
F11F
  8
DEFPOINTS
 62
     0
 10
2125.0000000000031832
 20
900.0
 30
0.0
  0
POINT
  5
F120
  8
DEFPOINTS
 62
     0
 10
3200.0
 20
900.0000000002213483
 30
0.0
  0
POINT
  5
F121
  8
DEFPOINTS
 62
     0
 10
3200.0
 20
450.0000000000197815
 30
0.0
  0
ENDBLK
  5
F117
  8
0
  0
BLOCK
  8
0
  2
*D106
 70
     1
 10
0.0
 20
0.0
 30
0.0
  3
*D106
  1

  0
LINE
  5
F12F
  8
0___30
 62
     0
 10
3692.5000000000009095
 20
7199.375
 30
0.0
 11
3692.5000000000009095
 21
7570.3999999999987267
 31
0.0
  0
LINE
  5
F130
  8
0___30
 62
     0
 10
4632.5
 20
7199.375
 30
0.0
 11
4632.5
 21
7570.3999999999987267
 31
0.0
  0
LINE
  5
F131
  8
0___30
 62
     0
 10
3697.9000000000010004
 20
7565.0
 30
0.0
 11
4143.1500000000005457
 21
7565.0
 31
0.0
  0
LINE
  5
F132
  8
0___30
 62
     0
 10
4627.1000000000012733
 20
7565.0
 30
0.0
 11
4181.8500000000012733
 21
7565.0
 31
0.0
  0
SOLID
  5
F133
  8
0___30
 62
     0
 10
3697.9000000000010004
 20
7565.8999999999987267
 30
0.0
 11
3697.9000000000010004
 21
7564.1000000000003638
 31
0.0
 12
3692.5000000000009095
 22
7565.0
 32
0.0
 13
3692.5000000000009095
 23
7565.0
 33
0.0
  0
SOLID
  5
F134
  8
0___30
 62
     0
 10
4627.1000000000012733
 20
7565.8999999999987267
 30
0.0
 11
4627.1000000000012733
 21
7564.1000000000003638
 31
0.0
 12
4632.5
 22
7565.0
 32
0.0
 13
4632.5
 23
7565.0
 33
0.0
  0
TEXT
  8
0___30
  40
5.4
  5
F3BC
  62
10
  72
0
  71
0
 10
4151.70
 20
7555.44
 30
0.00000
  1
940.0000
  7
MS_ゴシック
  0
POINT
  5
F136
  8
DEFPOINTS
 62
     0
 10
3692.5000000000009095
 20
7197.5000000000009095
 30
0.0
  0
POINT
  5
F137
  8
DEFPOINTS
 62
     0
 10
4632.5
 20
7197.5000000000009095
 30
0.0
  0
POINT
  5
F138
  8
DEFPOINTS
 62
     0
 10
4632.5
 20
7565.0
 30
0.0
  0
ENDBLK
  5
F12E
  8
0
  0
BLOCK
  8
0
  2
*D107
 70
     1
 10
0.0
 20
0.0
 30
0.0
  3
*D107
  1

  0
LINE
  5
F13C
  8
0___30
 62
     0
 10
4634.375000000001819
 20
7197.5000000000045475
 30
0.0
 11
5005.4000000000150976
 21
7197.5000000000045475
 31
0.0
  0
LINE
  5
F13D
  8
0___30
 62
     0
 10
4634.375000000001819
 20
5517.5000000000009095
 30
0.0
 11
5005.4000000000169166
 21
5517.5000000000009095
 31
0.0
  0
LINE
  5
F13E
  8
0___30
 62
     0
 10
5000.0000000000163709
 20
7192.1000000000049113
 30
0.0
 11
5000.0000000000163709
 21
6362.9000000000032742
 31
0.0
  0
LINE
  5
F13F
  8
0___30
 62
     0
 10
5000.0000000000172804
 20
5522.9000000000005457
 30
0.0
 11
5000.0000000000163709
 21
6352.1000000000040018
 31
0.0
  0
SOLID
  5
F140
  8
0___30
 62
     0
 10
4999.1000000000167347
 20
7192.1000000000049113
 30
0.0
 11
5000.9000000000160071
 21
7192.1000000000049113
 31
0.0
 12
5000.0000000000163709
 22
7197.5000000000045475
 32
0.0
 13
5000.0000000000163709
 23
7197.5000000000045475
 33
0.0
  0
SOLID
  5
F141
  8
0___30
 62
     0
 10
4999.1000000000176442
 20
5522.9000000000005457
 30
0.0
 11
5000.9000000000169166
 21
5522.9000000000005457
 31
0.0
 12
5000.0000000000172804
 22
5517.5000000000009095
 32
0.0
 13
5000.0000000000172804
 23
5517.5000000000009095
 33
0.0
  0
TEXT
  8
0___30
  40
5.4
  5
F3BD
  62
10
  72
0
  71
0
 10
4989.20
 20
6347.94
 30
0.00000
  1
1680.0000
  7
MS_ゴシック
  0
POINT
  5
F143
  8
DEFPOINTS
 62
     0
 10
4632.500000000001819
 20
7197.5000000000045475
 30
0.0
  0
POINT
  5
F144
  8
DEFPOINTS
 62
     0
 10
4632.500000000001819
 20
5517.5000000000009095
 30
0.0
  0
POINT
  5
F145
  8
DEFPOINTS
 62
     0
 10
5000.0000000000172804
 20
5517.5000000000009095
 30
0.0
  0
ENDBLK
  5
F13B
  8
0
  0
BLOCK
  8
0
  2
*D108
 70
     1
 10
0.0
 20
0.0
 30
0.0
  3
*D108
  1

  0
LINE
  5
F158
  8
0___30
 62
     0
 10
3625.0
 20
4948.125
 30
0.0
 11
3625.0
 21
4704.5999999999967258
 31
0.0
  0
LINE
  5
F159
  8
0___30
 62
     0
 10
4700.0
 20
4948.125
 30
0.0
 11
4700.0
 21
4704.5999999999967258
 31
0.0
  0
LINE
  5
F15A
  8
0___30
 62
     0
 10
3630.4000000000000909
 20
4709.999999999996362
 30
0.0
 11
4141.3500000000003638
 21
4709.999999999996362
 31
0.0
  0
LINE
  5
F15B
  8
0___30
 62
     0
 10
4694.6000000000003638
 20
4709.999999999996362
 30
0.0
 11
4183.6499999999987267
 21
4709.999999999996362
 31
0.0
  0
SOLID
  5
F15C
  8
0___30
 62
     0
 10
3630.4000000000000909
 20
4710.8999999999959982
 30
0.0
 11
3630.4000000000000909
 21
4709.0999999999958163
 31
0.0
 12
3625.0
 22
4709.999999999996362
 32
0.0
 13
3625.0
 23
4709.999999999996362
 33
0.0
  0
SOLID
  5
F15D
  8
0___30
 62
     0
 10
4694.6000000000003638
 20
4710.8999999999959982
 30
0.0
 11
4694.6000000000003638
 21
4709.0999999999958163
 31
0.0
 12
4700.0
 22
4709.999999999996362
 32
0.0
 13
4700.0
 23
4709.999999999996362
 33
0.0
  0
TEXT
  8
0___30
  40
5.4
  5
F3BE
  62
0
  72
0
  71
0
 10
4151.70
 20
4700.44
 30
0.00000
  1
1075.0000
  7
MS_ゴシック
  0
POINT
  5
F15F
  8
DEFPOINTS
 62
     0
 10
3625.0
 20
4950.0
 30
0.0
  0
POINT
  5
F160
  8
DEFPOINTS
 62
     0
 10
4700.0
 20
4950.0
 30
0.0
  0
POINT
  5
F161
  8
DEFPOINTS
 62
     0
 10
4700.0
 20
4709.999999999996362
 30
0.0
  0
ENDBLK
  5
F157
  8
0
  0
BLOCK
  8
0
  2
*D109
 70
     1
 10
0.0
 20
0.0
 30
0.0
  3
*D109
  1

  0
LINE
  5
F165
  8
0___30
 62
     0
 10
4634.375000000001819
 20
5047.500000000001819
 30
0.0
 11
5005.4000000000196451
 21
5047.500000000001819
 31
0.0
  0
LINE
  5
F166
  8
0___30
 62
     0
 10
4634.375000000001819
 20
5397.500000000001819
 30
0.0
 11
5005.4000000000196451
 21
5397.500000000001819
 31
0.0
  0
LINE
  5
F167
  8
0___30
 62
     0
 10
5000.0000000000200089
 20
5052.9000000000005457
 30
0.0
 11
5000.0000000000200089
 21
5217.1000000000021828
 31
0.0
  0
LINE
  5
F168
  8
0___30
 62
     0
 10
5000.0000000000200089
 20
5392.1000000000021828
 30
0.0
 11
5000.0000000000200089
 21
5227.9000000000005457
 31
0.0
  0
SOLID
  5
F169
  8
0___30
 62
     0
 10
4999.1000000000203727
 20
5052.9000000000005457
 30
0.0
 11
5000.9000000000196451
 21
5052.9000000000005457
 31
0.0
 12
5000.0000000000200089
 22
5047.500000000001819
 32
0.0
 13
5000.0000000000200089
 23
5047.500000000001819
 33
0.0
  0
SOLID
  5
F16A
  8
0___30
 62
     0
 10
4999.1000000000203727
 20
5392.1000000000021828
 30
0.0
 11
5000.9000000000196451
 21
5392.1000000000021828
 31
0.0
 12
5000.0000000000200089
 22
5397.500000000001819
 32
0.0
 13
5000.0000000000200089
 23
5397.500000000001819
 33
0.0
  0
TEXT
  8
0___30
  40
5.4
  5
F3BF
  62
10
  72
0
  71
0
 10
4989.20
 20
5212.94
 30
0.00000
  1
350.0000
  7
MS_ゴシック
  0
POINT
  5
F16C
  8
DEFPOINTS
 62
     0
 10
4632.500000000001819
 20
5047.500000000001819
 30
0.0
  0
POINT
  5
F16D
  8
DEFPOINTS
 62
     0
 10
4632.500000000001819
 20
5397.500000000001819
 30
0.0
  0
POINT
  5
F16E
  8
DEFPOINTS
 62
     0
 10
5000.0000000000200089
 20
5397.500000000001819
 30
0.0
  0
ENDBLK
  5
F164
  8
0
  0
BLOCK
  8
0
  2
*D110
 70
     1
 10
0.0
 20
0.0
 30
0.0
  3
*D110
  1

  0
LINE
  5
F1B8
  8
0___30
 62
     0
 10
1048.125
 20
4980.000000000001819
 30
0.0
 11
744.599999743495232
 21
4980.000000000001819
 31
0.0
  0
LINE
  5
F1B9
  8
0___30
 62
     0
 10
1048.1249999999870397
 20
7110.5000000050604285
 30
0.0
 11
744.5999997434946636
 21
7110.5000000050604285
 31
0.0
  0
LINE
  5
F1BA
  8
0___30
 62
     0
 10
749.9999997434952093
 20
4985.4000000000023647
 30
0.0
 11
749.9999997434948682
 21
6039.8500000025305781
 31
0.0
  0
LINE
  5
F1BB
  8
0___30
 62
     0
 10
749.9999997434947545
 20
7105.1000000050617018
 30
0.0
 11
749.9999997434948682
 21
6050.65000000253076
 31
0.0
  0
SOLID
  5
F1BC
  8
0___30
 62
     0
 10
749.099999743495232
 20
4985.4000000000023647
 30
0.0
 11
750.8999997434950728
 21
4985.4000000000023647
 31
0.0
 12
749.9999997434952093
 22
4980.000000000001819
 32
0.0
 13
749.9999997434952093
 23
4980.000000000001819
 33
0.0
  0
SOLID
  5
F1BD
  8
0___30
 62
     0
 10
749.0999997434946636
 20
7105.1000000050617018
 30
0.0
 11
750.8999997434947318
 21
7105.1000000050617018
 31
0.0
 12
749.9999997434947545
 22
7110.5000000050604285
 32
0.0
 13
749.9999997434947545
 23
7110.5000000050604285
 33
0.0
  0
TEXT
  8
0___30
  40
5.4
  5
F3C0
  62
0
  72
0
  71
0
 10
739.200
 20
6035.69
 30
0.00000
  1
2130.5000
  7
MS_ゴシック
  0
POINT
  5
F1BF
  8
DEFPOINTS
 62
     0
 10
1050.0
 20
4980.000000000001819
 30
0.0
  0
POINT
  5
F1C0
  8
DEFPOINTS
 62
     0
 10
1049.9999999999870397
 20
7110.5000000050604285
 30
0.0
  0
POINT
  5
F1C1
  8
DEFPOINTS
 62
     0
 10
749.9999997434947545
 20
7110.5000000050604285
 30
0.0
  0
ENDBLK
  5
F1B7
  8
0
  0
BLOCK
  8
0
  2
*D111
 70
     1
 10
0.0
 20
0.0
 30
0.0
  3
*D111
  1

  0
LINE
  5
F1C5
  8
0___30
 62
     0
 10
1048.1249999999899956
 20
7173.0000000831214493
 30
0.0
 11
744.5999997434945499
 21
7173.0000000831214493
 31
0.0
  0
LINE
  5
F1C6
  8
0___30
 62
     0
 10
1048.1249999999870397
 20
7110.5000000050604285
 30
0.0
 11
744.5999997434945499
 21
7110.5000000050604285
 31
0.0
  0
LINE
  5
F1C7
  8
0___30
 62
     0
 10
749.9999997434945271
 20
7167.6000000831227226
 30
0.0
 11
749.9999997434945271
 21
7115.9000000050609742
 31
0.0
  0
LINE
  5
F1C8
  8
0___30
 62
     0
 10
744.5999997434945499
 20
7322.9945618432866468
 30
0.0
 11
749.9999997434945271
 21
7322.9945618432866468
 31
0.0
  0
LINE
  5
F1C9
  8
0___30
 62
     0
 10
749.9999997434945271
 20
7322.9945618432866468
 30
0.0
 11
749.9999997434945271
 21
7173.0000000831214493
 31
0.0
  0
TEXT
  8
0___30
  40
5.4
  5
F3C1
  62
0
  72
0
  71
0
 10
716.250
 20
7313.44
 30
0.00000
  1
62.5000
  7
MS_ゴシック
  0
SOLID
  5
F1CB
  8
0___30
 62
     0
 10
749.0999997434945499
 20
7167.6000000831227226
 30
0.0
 11
750.8999997434945044
 21
7167.6000000831227226
 31
0.0
 12
749.9999997434945271
 22
7173.0000000831214493
 32
0.0
 13
749.9999997434945271
 23
7173.0000000831214493
 33
0.0
  0
SOLID
  5
F1CC
  8
0___30
 62
     0
 10
749.0999997434945499
 20
7115.9000000050609742
 30
0.0
 11
750.8999997434945044
 21
7115.9000000050609742
 31
0.0
 12
749.9999997434945271
 22
7110.5000000050604285
 32
0.0
 13
749.9999997434945271
 23
7110.5000000050604285
 33
0.0
  0
POINT
  5
F1CD
  8
DEFPOINTS
 62
     0
 10
1049.9999999999899956
 20
7173.0000000831214493
 30
0.0
  0
POINT
  5
F1CE
  8
DEFPOINTS
 62
     0
 10
1049.9999999999870397
 20
7110.5000000050604285
 30
0.0
  0
POINT
  5
F1CF
  8
DEFPOINTS
 62
     0
 10
749.9999997434945271
 20
7110.5000000050604285
 30
0.0
  0
ENDBLK
  5
F1C4
  8
0
  0
BLOCK
  8
0
  2
*D112
 70
     1
 10
0.0
 20
0.0
 30
0.0
  3
*D112
  1

  0
LINE
  5
F1D3
  8
0___30
 62
     0
 10
1589.3749999999909051
 20
7173.0000000831214493
 30
0.0
 11
1592.9000000000050932
 21
7173.0000000831214493
 31
0.0
  0
LINE
  5
F1D4
  8
0___30
 62
     0
 10
1589.3749999999929514
 20
7103.0000000050622475
 30
0.0
 11
1592.9000000000050932
 21
7103.0000000050622475
 31
0.0
  0
LINE
  5
F1D5
  8
0___30
 62
     0
 10
1587.5000000000040927
 20
7167.6000000831227226
 30
0.0
 11
1587.5000000000040927
 21
7108.4000000050609742
 31
0.0
  0
LINE
  5
F1D6
  8
0___30
 62
     0
 10
1582.1000000000049113
 20
7293.0000000831241778
 30
0.0
 11
1587.5000000000040927
 21
7293.0000000831241778
 31
0.0
  0
LINE
  5
F1D7
  8
0___30
 62
     0
 10
1587.5000000000040927
 20
7293.0000000831241778
 30
0.0
 11
1587.5000000000040927
 21
7173.0000000831214493
 31
0.0
  0
TEXT
  8
0___30
  40
5.4
  5
F3C2
  62
0
  72
0
  71
0
 10
1554.65
 20
7283.44
 30
0.00000
  1
70.0000
  7
MS_ゴシック
  0
SOLID
  5
F1D9
  8
0___30
 62
     0
 10
1586.6000000000049113
 20
7167.6000000831227226
 30
0.0
 11
1588.4000000000050932
 21
7167.6000000831227226
 31
0.0
 12
1587.5000000000040927
 22
7173.0000000831214493
 32
0.0
 13
1587.5000000000040927
 23
7173.0000000831214493
 33
0.0
  0
SOLID
  5
F1DA
  8
0___30
 62
     0
 10
1586.6000000000049113
 20
7108.4000000050609742
 30
0.0
 11
1588.4000000000050932
 21
7108.4000000050609742
 31
0.0
 12
1587.5000000000040927
 22
7103.0000000050622475
 32
0.0
 13
1587.5000000000040927
 23
7103.0000000050622475
 33
0.0
  0
POINT
  5
F1DB
  8
DEFPOINTS
 62
     0
 10
1587.4999999999909051
 20
7173.0000000831214493
 30
0.0
  0
POINT
  5
F1DC
  8
DEFPOINTS
 62
     0
 10
1587.4999999999929514
 20
7103.0000000050622475
 30
0.0
  0
POINT
  5
F1DD
  8
DEFPOINTS
 62
     0
 10
1587.5000000000040927
 20
7103.0000000050622475
 30
0.0
  0
ENDBLK
  5
F1D2
  8
0
  0
BLOCK
  8
0
  2
*D113
 70
     1
 10
0.0
 20
0.0
 30
0.0
  3
*D113
  1

  0
LINE
  5
F1E1
  8
0___30
 62
     0
 10
1044.9999999999909051
 20
7112.3750000050577
 30
0.0
 11
1044.9999999999909051
 21
7565.9000000050364179
 31
0.0
  0
LINE
  5
F1E2
  8
0___30
 62
     0
 10
1049.9999999999899956
 20
7112.3750000050577
 30
0.0
 11
1049.9999999999899956
 21
7565.9000000050364179
 31
0.0
  0
LINE
  5
F1E3
  8
0___30
 62
     0
 10
1039.5999999999899046
 20
7560.5000000050367817
 30
0.0
 11
1034.1999999999909505
 21
7560.5000000050367817
 31
0.0
  0
LINE
  5
F1E4
  8
0___30
 62
     0
 10
1055.3999999999900865
 20
7560.5000000050367817
 30
0.0
 11
1060.7999999999899501
 21
7560.5000000050367817
 31
0.0
  0
LINE
  5
F1E5
  8
0___30
 62
     0
 10
939.3999999999905413
 20
7560.5000000050367817
 30
0.0
 11
1044.9999999999909051
 21
7560.5000000050367817
 31
0.0
  0
TEXT
  8
0___30
  40
5.4
  5
F3C3
  62
0
  72
0
  71
0
 10
914.200
 20
7550.94
 30
0.00000
  1
5.0000
  7
MS_ゴシック
  0
LINE
  5
F1E7
  8
0___30
 62
     0
 10
1044.9999999999909051
 20
7560.5000000050367817
 30
0.0
 11
1049.9999999999899956
 21
7560.5000000050367817
 31
0.0
  0
LINE
  5
F1E8
  8
0___30
 62
     0
 10
1044.9999999999909051
 20
7560.5000000050367817
 30
0.0
 11
1049.9999999999899956
 21
7560.5000000050367817
 31
0.0
  0
SOLID
  5
F1E9
  8
0___30
 62
     0
 10
1039.5999999999899046
 20
7561.4000000050364179
 30
0.0
 11
1039.5999999999899046
 21
7559.6000000050371455
 31
0.0
 12
1044.9999999999909051
 22
7560.5000000050367817
 32
0.0
 13
1044.9999999999909051
 23
7560.5000000050367817
 33
0.0
  0
SOLID
  5
F1EA
  8
0___30
 62
     0
 10
1055.3999999999900865
 20
7561.4000000050364179
 30
0.0
 11
1055.3999999999900865
 21
7559.6000000050371455
 31
0.0
 12
1049.9999999999899956
 22
7560.5000000050367817
 32
0.0
 13
1049.9999999999899956
 23
7560.5000000050367817
 33
0.0
  0
POINT
  5
F1EB
  8
DEFPOINTS
 62
     0
 10
1044.9999999999909051
 20
7110.5000000050577
 30
0.0
  0
POINT
  5
F1EC
  8
DEFPOINTS
 62
     0
 10
1049.9999999999899956
 20
7110.5000000050577
 30
0.0
  0
POINT
  5
F1ED
  8
DEFPOINTS
 62
     0
 10
1049.9999999999899956
 20
7560.5000000050367817
 30
0.0
  0
ENDBLK
  5
F1E0
  8
0
  0
BLOCK
  8
0
  2
*D114
 70
     1
 10
0.0
 20
0.0
 30
0.0
  3
*D114
  1

  0
LINE
  5
F1F1
  8
0___30
 62
     0
 10
2124.9999999999931788
 20
7112.3750000050577
 30
0.0
 11
2124.9999999999931788
 21
7565.9000000050364179
 31
0.0
  0
LINE
  5
F1F2
  8
0___30
 62
     0
 10
1049.9999999999940883
 20
7112.3750000050577
 30
0.0
 11
1049.9999999999940883
 21
7565.9000000050364179
 31
0.0
  0
LINE
  5
F1F3
  8
0___30
 62
     0
 10
2119.5999999999930878
 20
7560.5000000050367817
 30
0.0
 11
1608.6499999999930424
 21
7560.5000000050367817
 31
0.0
  0
LINE
  5
F1F4
  8
0___30
 62
     0
 10
1055.3999999999939519
 20
7560.5000000050367817
 30
0.0
 11
1566.3499999999930878
 21
7560.5000000050367817
 31
0.0
  0
SOLID
  5
F1F5
  8
0___30
 62
     0
 10
2119.5999999999930878
 20
7561.4000000050364179
 30
0.0
 11
2119.5999999999930878
 21
7559.6000000050371455
 31
0.0
 12
2124.9999999999931788
 22
7560.5000000050367817
 32
0.0
 13
2124.9999999999931788
 23
7560.5000000050367817
 33
0.0
  0
SOLID
  5
F1F6
  8
0___30
 62
     0
 10
1055.3999999999939519
 20
7561.4000000050364179
 30
0.0
 11
1055.3999999999939519
 21
7559.6000000050371455
 31
0.0
 12
1049.9999999999940883
 22
7560.5000000050367817
 32
0.0
 13
1049.9999999999940883
 23
7560.5000000050367817
 33
0.0
  0
TEXT
  8
0___30
  40
5.4
  5
F3C4
  62
0
  72
0
  71
0
 10
1576.70
 20
7550.94
 30
0.00000
  1
1075.0000
  7
MS_ゴシック
  0
POINT
  5
F1F8
  8
DEFPOINTS
 62
     0
 10
2124.9999999999931788
 20
7110.5000000050577
 30
0.0
  0
POINT
  5
F1F9
  8
DEFPOINTS
 62
     0
 10
1049.9999999999940883
 20
7110.5000000050577
 30
0.0
  0
POINT
  5
F1FA
  8
DEFPOINTS
 62
     0
 10
1049.9999999999940883
 20
7560.5000000050367817
 30
0.0
  0
ENDBLK
  5
F1F0
  8
0
  0
BLOCK
  8
0
  2
*D115
 70
     1
 10
0.0
 20
0.0
 30
0.0
  3
*D115
  1

  0
LINE
  5
F20D
  8
0___30
 62
     0
 10
5842.5000000000009095
 20
3119.3750000000009095
 30
0.0
 11
5842.5000000000009095
 21
3490.4000000000010004
 31
0.0
  0
LINE
  5
F20E
  8
0___30
 62
     0
 10
6782.5
 20
3119.3750000000009095
 30
0.0
 11
6782.5
 21
3490.4000000000010004
 31
0.0
  0
LINE
  5
F20F
  8
0___30
 62
     0
 10
5847.8999999999996362
 20
3485.0000000000009095
 30
0.0
 11
6293.1499999999996362
 21
3485.0000000000009095
 31
0.0
  0
LINE
  5
F210
  8
0___30
 62
     0
 10
6777.1000000000003638
 20
3485.0000000000009095
 30
0.0
 11
6331.8500000000012733
 21
3485.0000000000009095
 31
0.0
  0
SOLID
  5
F211
  8
0___30
 62
     0
 10
5847.8999999999996362
 20
3485.9000000000010004
 30
0.0
 11
5847.8999999999996362
 21
3484.0999999999999091
 31
0.0
 12
5842.5000000000009095
 22
3485.0000000000009095
 32
0.0
 13
5842.5000000000009095
 23
3485.0000000000009095
 33
0.0
  0
SOLID
  5
F212
  8
0___30
 62
     0
 10
6777.1000000000003638
 20
3485.9000000000010004
 30
0.0
 11
6777.1000000000003638
 21
3484.0999999999999091
 31
0.0
 12
6782.5
 22
3485.0000000000009095
 32
0.0
 13
6782.5
 23
3485.0000000000009095
 33
0.0
  0
TEXT
  8
0___30
  40
5.4
  5
F3C5
  62
10
  72
0
  71
0
 10
6301.70
 20
3475.44
 30
0.00000
  1
940.0000
  7
MS_ゴシック
  0
POINT
  5
F214
  8
DEFPOINTS
 62
     0
 10
5842.5000000000009095
 20
3117.5000000000009095
 30
0.0
  0
POINT
  5
F215
  8
DEFPOINTS
 62
     0
 10
6782.5
 20
3117.5000000000009095
 30
0.0
  0
POINT
  5
F216
  8
DEFPOINTS
 62
     0
 10
6782.5
 20
3485.0000000000009095
 30
0.0
  0
ENDBLK
  5
F20C
  8
0
  0
BLOCK
  8
0
  2
*D116
 70
     1
 10
0.0
 20
0.0
 30
0.0
  3
*D116
  1

  0
LINE
  5
F21A
  8
0___30
 62
     0
 10
6784.375000000003638
 20
3117.500000000001819
 30
0.0
 11
7155.4000000000332875
 21
3117.500000000001819
 31
0.0
  0
LINE
  5
F21B
  8
0___30
 62
     0
 10
6784.375000000003638
 20
1437.5
 30
0.0
 11
7155.400000000034197
 21
1437.5
 31
0.0
  0
LINE
  5
F21C
  8
0___30
 62
     0
 10
7150.0000000000336513
 20
3112.1000000000021828
 30
0.0
 11
7150.0000000000336513
 21
2282.9000000000010004
 31
0.0
  0
LINE
  5
F21D
  8
0___30
 62
     0
 10
7150.0000000000336513
 20
1442.9000000000000909
 30
0.0
 11
7150.0000000000336513
 21
2272.1000000000008185
 31
0.0
  0
SOLID
  5
F21E
  8
0___30
 62
     0
 10
7149.1000000000340151
 20
3112.1000000000021828
 30
0.0
 11
7150.900000000034197
 21
3112.1000000000021828
 31
0.0
 12
7150.0000000000336513
 22
3117.500000000001819
 32
0.0
 13
7150.0000000000336513
 23
3117.500000000001819
 33
0.0
  0
SOLID
  5
F21F
  8
0___30
 62
     0
 10
7149.1000000000358341
 20
1442.9000000000000909
 30
0.0
 11
7150.900000000034197
 21
1442.9000000000000909
 31
0.0
 12
7150.0000000000336513
 22
1437.5
 32
0.0
 13
7150.0000000000336513
 23
1437.5
 33
0.0
  0
TEXT
  8
0___30
  40
5.4
  5
F3C6
  62
10
  72
0
  71
0
 10
7139.20
 20
2267.94
 30
0.00000
  1
1680.0000
  7
MS_ゴシック
  0
POINT
  5
F221
  8
DEFPOINTS
 62
     0
 10
6782.5000000000027285
 20
3117.500000000001819
 30
0.0
  0
POINT
  5
F222
  8
DEFPOINTS
 62
     0
 10
6782.5000000000027285
 20
1437.5
 30
0.0
  0
POINT
  5
F223
  8
DEFPOINTS
 62
     0
 10
7150.0000000000336513
 20
1437.5
 30
0.0
  0
ENDBLK
  5
F219
  8
0
  0
BLOCK
  8
0
  2
*D117
 70
     1
 10
0.0
 20
0.0
 30
0.0
  3
*D117
  1

  0
LINE
  5
F227
  8
0___30
 62
     0
 10
6784.375000000003638
 20
967.5000000000006821
 30
0.0
 11
7155.4000000000351065
 21
967.5000000000006821
 31
0.0
  0
LINE
  5
F228
  8
0___30
 62
     0
 10
6784.375000000003638
 20
1317.5
 30
0.0
 11
7155.4000000000351065
 21
1317.5
 31
0.0
  0
LINE
  5
F229
  8
0___30
 62
     0
 10
7150.0000000000372893
 20
972.9000000000007731
 30
0.0
 11
7150.0000000000372893
 21
1137.0999999999999091
 31
0.0
  0
LINE
  5
F22A
  8
0___30
 62
     0
 10
7150.0000000000372893
 20
1312.0999999999999091
 30
0.0
 11
7150.0000000000372893
 21
1147.9000000000000909
 31
0.0
  0
SOLID
  5
F22B
  8
0___30
 62
     0
 10
7149.1000000000367436
 20
972.9000000000007731
 30
0.0
 11
7150.9000000000351065
 21
972.9000000000007731
 31
0.0
 12
7150.0000000000372893
 22
967.5000000000006821
 32
0.0
 13
7150.0000000000372893
 23
967.5000000000006821
 33
0.0
  0
SOLID
  5
F22C
  8
0___30
 62
     0
 10
7149.1000000000367436
 20
1312.0999999999999091
 30
0.0
 11
7150.9000000000351065
 21
1312.0999999999999091
 31
0.0
 12
7150.0000000000372893
 22
1317.5
 32
0.0
 13
7150.0000000000372893
 23
1317.5
 33
0.0
  0
TEXT
  8
0___30
  40
5.4
  5
F3C7
  62
10
  72
0
  71
0
 10
7139.20
 20
1132.94
 30
0.00000
  1
350.0000
  7
MS_ゴシック
  0
POINT
  5
F22E
  8
DEFPOINTS
 62
     0
 10
6782.5000000000027285
 20
967.5000000000006821
 30
0.0
  0
POINT
  5
F22F
  8
DEFPOINTS
 62
     0
 10
6782.5000000000027285
 20
1317.5
 30
0.0
  0
POINT
  5
F230
  8
DEFPOINTS
 62
     0
 10
7150.0000000000372893
 20
1317.5
 30
0.0
  0
ENDBLK
  5
F226
  8
0
  0
BLOCK
  8
0
  2
*D118
 70
     1
 10
0.0
 20
0.0
 30
0.0
  3
*D118
  1

  0
LINE
  5
F252
  8
0___30
 62
     0
 10
8350.0
 20
898.1250000000002274
 30
0.0
 11
8350.0
 21
624.6000000000004775
 31
0.0
  0
LINE
  5
F253
  8
0___30
 62
     0
 10
10480.5
 20
898.1250000000002274
 30
0.0
 11
10480.5
 21
624.6000000000004775
 31
0.0
  0
LINE
  5
F254
  8
0___30
 62
     0
 10
8355.4000000000014552
 20
630.0000000000005684
 30
0.0
 11
9393.6499999999996362
 21
630.0000000000005684
 31
0.0
  0
LINE
  5
F255
  8
0___30
 62
     0
 10
10475.1000000000003638
 20
630.0000000000005684
 30
0.0
 11
9436.8500000000003638
 21
630.0000000000005684
 31
0.0
  0
SOLID
  5
F256
  8
0___30
 62
     0
 10
8355.4000000000014552
 20
630.9000000000005457
 30
0.0
 11
8355.4000000000014552
 21
629.1000000000004775
 31
0.0
 12
8350.0
 22
630.0000000000005684
 32
0.0
 13
8350.0
 23
630.0000000000005684
 33
0.0
  0
SOLID
  5
F257
  8
0___30
 62
     0
 10
10475.1000000000003638
 20
630.9000000000005457
 30
0.0
 11
10475.1000000000003638
 21
629.1000000000004775
 31
0.0
 12
10480.5
 22
630.0000000000005684
 32
0.0
 13
10480.5
 23
630.0000000000005684
 33
0.0
  0
TEXT
  8
0___30
  40
5.4
  5
F3C8
  62
0
  72
0
  71
0
 10
9404.45
 20
620.442
 30
0.00000
  1
2130.5000
  7
MS_ゴシック
  0
POINT
  5
F259
  8
DEFPOINTS
 62
     0
 10
8350.0
 20
900.0000000000001137
 30
0.0
  0
POINT
  5
F25A
  8
DEFPOINTS
 62
     0
 10
10480.5
 20
900.0000000000001137
 30
0.0
  0
POINT
  5
F25B
  8
DEFPOINTS
 62
     0
 10
10480.5
 20
630.0000000000005684
 30
0.0
  0
ENDBLK
  5
F251
  8
0
  0
ENDSEC
  0
SECTION
  2
ENTITIES
  0
TEXT
  5
3BE7
  8
HOJO
 10
0.0
 20
8160.0
 30
0.0
 40
500.0
  1
プロット
  7
MS_ゴシック
  0
INSERT
  5
C5C1
  8
HOJO
  2
図枠
 10
6075.0
 20
4080.0
 30
0.0
 41
30.0
 42
30.0
 43
30.0
  0
POLYLINE
  5
C5C2
  8
HOJO
  6
HIDDEN
 66
     1
 10
0.0
 20
0.0
 30
0.0
 70
     1
  0
VERTEX
  5
F017
  8
HOJO
  6
HIDDEN
 10
150.000000000000199
 20
150.0
 30
0.0
  0
VERTEX
  5
F018
  8
HOJO
  6
HIDDEN
 10
11999.9999999999909051
 20
150.0
 30
0.0
  0
VERTEX
  5
F019
  8
HOJO
  6
HIDDEN
 10
11999.9999999999909051
 20
8010.0
 30
0.0
  0
VERTEX
  5
F01A
  8
HOJO
  6
HIDDEN
 10
150.000000000000199
 20
8010.0
 30
0.0
  0
SEQEND
  5
F01B
  8
HOJO
  6
HIDDEN
  0
POLYLINE
  5
C8E0
  8
HOJO
  6
HIDDEN
 66
     1
 10
0.0
 20
0.0
 30
0.0
 70
     1
  0
VERTEX
  5
F01C
  8
HOJO
  6
HIDDEN
 10
2274.999999999998181
 20
4830.0
 30
0.0
  0
VERTEX
  5
F01D
  8
HOJO
  6
HIDDEN
 10
2274.9999999999890861
 20
7260.500000005055881
 30
0.0
  0
VERTEX
  5
F01E
  8
HOJO
  6
HIDDEN
 10
899.9999999999884039
 20
7260.500000005055881
 30
0.0
  0
VERTEX
  5
F01F
  8
HOJO
  6
HIDDEN
 10
899.999999999998181
 20
4830.0
 30
0.0
  0
SEQEND
  5
F020
  8
HOJO
  6
HIDDEN
  0
POLYLINE
  5
C8E1
  8
HOJO
  6
HIDDEN
 66
     1
 10
0.0
 20
0.0
 30
0.0
 70
     1
  0
VERTEX
  5
F021
  8
HOJO
  6
HIDDEN
 10
2425.0
 20
4680.0
 30
0.0
  0
VERTEX
  5
F022
  8
HOJO
  6
HIDDEN
 10
2424.9999999999890861
 20
7410.5000000050567905
 30
0.0
  0
VERTEX
  5
F023
  8
HOJO
  6
HIDDEN
 10
749.9999999999885176
 20
7410.5000000050567905
 30
0.0
  0
VERTEX
  5
F024
  8
HOJO
  6
HIDDEN
 10
749.999999999998181
 20
4680.0
 30
0.0
  0
SEQEND
  5
F025
  8
HOJO
  6
HIDDEN
  0
POLYLINE
  5
C8E2
  8
HOJO
  6
HIDDEN
 66
     1
 10
0.0
 20
0.0
 30
0.0
 70
     1
  0
VERTEX
  5
F026
  8
HOJO
  6
HIDDEN
 10
2575.0
 20
4530.0
 30
0.0
  0
VERTEX
  5
F027
  8
HOJO
  6
HIDDEN
 10
2574.9999999999890861
 20
7560.500000005055881
 30
0.0
  0
VERTEX
  5
F028
  8
HOJO
  6
HIDDEN
 10
599.999999999988745
 20
7560.500000005055881
 30
0.0
  0
VERTEX
  5
F029
  8
HOJO
  6
HIDDEN
 10
599.9999999999982947
 20
4530.0
 30
0.0
  0
SEQEND
  5
F02A
  8
HOJO
  6
HIDDEN
  0
POLYLINE
  5
C8E3
  8
HOJO
  6
HIDDEN
 66
     1
 10
0.0
 20
0.0
 30
0.0
 70
     1
  0
VERTEX
  5
F02B
  8
HOJO
  6
HIDDEN
 10
2725.0
 20
4380.0
 30
0.0
  0
VERTEX
  5
F02C
  8
HOJO
  6
HIDDEN
 10
2724.9999999999890861
 20
7710.500000005055881
 30
0.0
  0
VERTEX
  5
F02D
  8
HOJO
  6
HIDDEN
 10
449.9999999999888018
 20
7710.500000005055881
 30
0.0
  0
VERTEX
  5
F02E
  8
HOJO
  6
HIDDEN
 10
449.999999999998181
 20
4380.0
 30
0.0
  0
SEQEND
  5
F02F
  8
HOJO
  6
HIDDEN
  0
POLYLINE
  5
C8E4
  8
HOJO
  6
HIDDEN
 66
     1
 10
0.0
 20
0.0
 30
0.0
 70
     1
  0
VERTEX
  5
F030
  8
HOJO
  6
HIDDEN
 10
2875.0
 20
4230.0
 30
0.0
  0
VERTEX
  5
F031
  8
HOJO
  6
HIDDEN
 10
2874.9999999999890861
 20
7860.5000000050567905
 30
0.0
  0
VERTEX
  5
F032
  8
HOJO
  6
HIDDEN
 10
299.9999999999888018
 20
7860.5000000050567905
 30
0.0
  0
VERTEX
  5
F033
  8
HOJO
  6
HIDDEN
 10
299.999999999998181
 20
4230.0
 30
0.0
  0
SEQEND
  5
F034
  8
HOJO
  6
HIDDEN
  0
DIMENSION
  5
C8E8
  8
0___30
  2
*D91
 10
749.9999997434940724
 20
3030.5000000050567905
 30
0.0
 11
749.9999997434947545
 21
1965.2500000025279405
 31
0.0
 70
     0
 13
1050.0
 23
900.0000000000001137
 33
0.0
 14
1049.9999999999870397
 24
3030.5000000050567905
 34
0.0
 50
90.0
1001
ACADANNOTATIVE
1000
AnnotativeData
1002
{
1070
     1
1070
     0
1002
}
1001
ACAD
1000
DSTYLE
1002
{
1070
   287
1070
     4
1070
    40
1040
30.0
1070
   279
1070
     1
1070
   289
1070
     3
1070
   174
1070
     0
1070
   175
1070
     0
1070
   172
1070
     1
1002
}
  0
DIMENSION
  5
C8ED
  8
0___30
  2
*D92
 10
749.9999997434939587
 20
3030.5000000050567905
 30
0.0
 11
749.9999997434873649
 21
3242.9945618432820993
 31
0.0
 70
   128
 13
1049.9999999999899956
 23
3093.0000000831191755
 33
0.0
 14
1049.9999999999870397
 24
3030.5000000050567905
 34
0.0
 50
90.0
1001
ACADANNOTATIVE
1000
AnnotativeData
1002
{
1070
     1
1070
     0
1002
}
1001
ACAD
1000
DSTYLE
1002
{
1070
   287
1070
     4
1070
    40
1040
30.0
1070
   279
1070
     1
1070
   289
1070
     3
1070
   174
1070
     0
1070
   175
1070
     0
1070
   172
1070
     1
1002
}
  0
LINE
  5
C8FC
  8
0
  6
PHANTOM
 10
2274.9999999999890861
 20
7173.0000000831169018
 30
0.0
 11
1045.0000000311858912
 21
7173.0000000831169018
 31
0.0
  0
POLYLINE
  5
C906
  8
0
 66
     1
 10
0.0
 20
0.0
 30
0.0
 70
     1
  0
VERTEX
  5
F050
  8
0
 10
3625.0
 20
4950.0
 30
0.0
  0
VERTEX
  5
F051
  8
0
 10
4700.0
 20
4950.0
 30
0.0
  0
VERTEX
  5
F052
  8
0
 10
4700.0
 20
4980.0
 30
0.0
  0
VERTEX
  5
F053
  8
0
 10
3625.0
 20
4980.0
 30
0.0
  0
SEQEND
  5
F054
  8
0
  0
DIMENSION
  5
C930
  8
0___30
  2
*D93
 10
8330.5
 20
4709.9999999999909051
 30
0.0
 11
7265.25
 21
4709.9999999999909051
 31
0.0
 70
     0
 13
6200.0
 23
4979.9999999999918145
 33
0.0
 14
8330.5
 24
4979.9999999999918145
 34
0.0
 50
180.0
1001
ACADANNOTATIVE
1000
AnnotativeData
1002
{
1070
     1
1070
     0
1002
}
1001
ACAD
1000
DSTYLE
1002
{
1070
   287
1070
     4
1070
    40
1040
30.0
1070
   279
1070
     1
1070
   289
1070
     3
1070
   174
1070
     0
1070
   175
1070
     0
1070
   172
1070
     1
1002
}
  0
LINE
  5
C96C
  8
0
  6
PHANTOM
 10
1044.9999987695819073
 20
4680.0
 30
0.0
 11
1045.0000000311858912
 21
7173.0000000831169018
 31
0.0
  0
DIMENSION
  5
C972
  8
0___30
  2
*D94
 10
1587.5000000000040927
 20
3023.0000000050567905
 30
0.0
 11
1587.4999999999920419
 21
3213.000000083120085
 31
0.0
 70
   128
 13
1587.4999999999909051
 23
3093.0000000831191755
 33
0.0
 14
1587.4999999999920419
 24
3023.000000005055881
 34
0.0
 50
90.0
1001
ACADANNOTATIVE
1000
AnnotativeData
1002
{
1070
     1
1070
     0
1002
}
1001
ACAD
1000
DSTYLE
1002
{
1070
   287
1070
     4
1070
    40
1040
30.0
1070
   279
1070
     1
1070
   289
1070
     3
1070
   174
1070
     0
1070
   175
1070
     0
1070
   172
1070
     1
1002
}
  0
DIMENSION
  5
C977
  8
0___30
  2
*D95
 10
1049.9999999999899956
 20
3480.5000000050367817
 30
0.0
 11
924.9999999999904503
 21
3480.5000000050367817
 31
0.0
 70
   128
 13
1044.9999999999899956
 23
3030.5000000050567905
 33
0.0
 14
1049.9999999999899956
 24
3030.5000000050567905
 34
0.0
 50
180.0
1001
ACADANNOTATIVE
1000
AnnotativeData
1002
{
1070
     1
1070
     0
1002
}
1001
ACAD
1000
DSTYLE
1002
{
1070
   287
1070
     4
1070
    40
1040
30.0
1070
   279
1070
     1
1070
   289
1070
     3
1070
   174
1070
     0
1070
   175
1070
     0
1070
   172
1070
     1
1002
}
  0
DIMENSION
  5
C97C
  8
0___30
  2
*D96
 10
3325.0000000000381988
 20
7265.000000000003638
 30
0.0
 11
3325.0000000000400178
 21
6122.5
 31
0.0
 70
     0
 13
3625.0
 23
4980.0
 33
0.0
 14
3625.0
 24
7265.0
 34
0.0
 50
90.0
1001
ACADANNOTATIVE
1000
AnnotativeData
1002
{
1070
     1
1070
     0
1002
}
1001
ACAD
1000
DSTYLE
1002
{
1070
   287
1070
     4
1070
    40
1040
30.0
1070
   279
1070
     1
1070
   289
1070
     3
1070
   174
1070
     0
1070
   175
1070
     0
1070
   172
1070
     1
1002
}
  0
DIMENSION
  5
C986
  8
0___30
  2
*D97
 10
3325.0000000000409273
 20
4949.9999999999954525
 30
0.0
 11
3325.0000000000009095
 21
4829.9999999999918145
 31
0.0
 70
   128
 13
3625.0
 23
4980.0
 33
0.0
 14
3662.500000005055881
 24
4949.999999999992724
 34
0.0
 50
90.0
1001
ACADANNOTATIVE
1000
AnnotativeData
1002
{
1070
     1
1070
     0
1002
}
1001
ACAD
1000
DSTYLE
1002
{
1070
   287
1070
     4
1070
    40
1040
30.0
1070
   279
1070
     1
1070
   289
1070
     3
1070
   174
1070
     0
1070
   175
1070
     0
1070
   172
1070
     1
1002
}
  0
DIMENSION
  5
C98B
  8
0___30
  2
*D98
 10
3175.0000000000381988
 20
7265.000000000003638
 30
0.0
 11
3175.0000000000391083
 21
6107.499999999998181
 31
0.0
 70
     0
 13
3662.500000005055881
 23
4949.999999999992724
 33
0.0
 14
3625.0
 24
7265.0
 34
0.0
 50
90.0
1001
ACADANNOTATIVE
1000
AnnotativeData
1002
{
1070
     1
1070
     0
1002
}
1001
ACAD
1000
DSTYLE
1002
{
1070
   287
1070
     4
1070
    40
1040
30.0
1070
   279
1070
     1
1070
   289
1070
     3
1070
   174
1070
     0
1070
   175
1070
     0
1070
   172
1070
     1
1002
}
  0
POLYLINE
  5
CE95
  8
HOJO
  6
HIDDEN
 66
     1
 10
0.0
 20
0.0
 30
0.0
 70
     1
  0
VERTEX
  5
F0A8
  8
HOJO
  6
HIDDEN
 10
3350.0
 20
750.0
 30
0.0
  0
VERTEX
  5
F0A9
  8
HOJO
  6
HIDDEN
 10
3349.9999999999931788
 20
3180.5000000050581548
 30
0.0
  0
VERTEX
  5
F0AA
  8
HOJO
  6
HIDDEN
 10
899.9999999999922693
 20
3180.5000000050581548
 30
0.0
  0
VERTEX
  5
F0AB
  8
HOJO
  6
HIDDEN
 10
900.0
 20
750.0
 30
0.0
  0
SEQEND
  5
F0AC
  8
HOJO
  6
HIDDEN
  0
POLYLINE
  5
CE96
  8
HOJO
  6
HIDDEN
 66
     1
 10
0.0
 20
0.0
 30
0.0
 70
     1
  0
VERTEX
  5
F0AD
  8
HOJO
  6
HIDDEN
 10
3500.0
 20
600.0
 30
0.0
  0
VERTEX
  5
F0AE
  8
HOJO
  6
HIDDEN
 10
3499.9999999999931788
 20
3330.5000000050581548
 30
0.0
  0
VERTEX
  5
F0AF
  8
HOJO
  6
HIDDEN
 10
749.9999999999922693
 20
3330.5000000050581548
 30
0.0
  0
VERTEX
  5
F0B0
  8
HOJO
  6
HIDDEN
 10
750.0
 20
600.0
 30
0.0
  0
SEQEND
  5
F0B1
  8
HOJO
  6
HIDDEN
  0
POLYLINE
  5
CE97
  8
HOJO
  6
HIDDEN
 66
     1
 10
0.0
 20
0.0
 30
0.0
 70
     1
  0
VERTEX
  5
F0B2
  8
HOJO
  6
HIDDEN
 10
3650.0
 20
450.0
 30
0.0
  0
VERTEX
  5
F0B3
  8
HOJO
  6
HIDDEN
 10
3649.9999999999931788
 20
3480.5000000050581548
 30
0.0
  0
VERTEX
  5
F0B4
  8
HOJO
  6
HIDDEN
 10
599.9999999999922693
 20
3480.5000000050581548
 30
0.0
  0
VERTEX
  5
F0B5
  8
HOJO
  6
HIDDEN
 10
600.0
 20
450.0
 30
0.0
  0
SEQEND
  5
F0B6
  8
HOJO
  6
HIDDEN
  0
POLYLINE
  5
CE98
  8
HOJO
  6
HIDDEN
 66
     1
 10
0.0
 20
0.0
 30
0.0
 70
     1
  0
VERTEX
  5
F0B7
  8
HOJO
  6
HIDDEN
 10
3800.0
 20
300.0
 30
0.0
  0
VERTEX
  5
F0B8
  8
HOJO
  6
HIDDEN
 10
3799.9999999999931788
 20
3630.5000000050581548
 30
0.0
  0
VERTEX
  5
F0B9
  8
HOJO
  6
HIDDEN
 10
449.9999999999923261
 20
3630.5000000050581548
 30
0.0
  0
VERTEX
  5
F0BA
  8
HOJO
  6
HIDDEN
 10
449.9999999999998863
 20
300.0
 30
0.0
  0
SEQEND
  5
F0BB
  8
HOJO
  6
HIDDEN
  0
POLYLINE
  5
CE99
  8
HOJO
  6
HIDDEN
 66
     1
 10
0.0
 20
0.0
 30
0.0
 70
     1
  0
VERTEX
  5
F0BC
  8
HOJO
  6
HIDDEN
 10
3950.0
 20
150.0
 30
0.0
  0
VERTEX
  5
F0BD
  8
HOJO
  6
HIDDEN
 10
3949.9999999999931788
 20
3780.5000000050581548
 30
0.0
  0
VERTEX
  5
F0BE
  8
HOJO
  6
HIDDEN
 10
299.9999999999924967
 20
3780.5000000050581548
 30
0.0
  0
VERTEX
  5
F0BF
  8
HOJO
  6
HIDDEN
 10
300.0
 20
150.0
 30
0.0
  0
SEQEND
  5
F0C0
  8
HOJO
  6
HIDDEN
  0
POLYLINE
  5
CEC4
  8
0
 66
     1
 10
0.0
 20
0.0
 30
0.0
 70
     1
  0
VERTEX
  5
F0C1
  8
0
 10
4700.0
 20
870.0000000000002274
 30
0.0
  0
VERTEX
  5
F0C2
  8
0
 10
6850.0
 20
870.0000000000002274
 30
0.0
  0
VERTEX
  5
F0C3
  8
0
 10
6850.0
 20
900.0000000000001137
 30
0.0
  0
VERTEX
  5
F0C4
  8
0
 10
4700.0
 20
900.0000000000001137
 30
0.0
  0
SEQEND
  5
F0C5
  8
0
  0
DIMENSION
  5
CED8
  8
0___30
  2
*D99
 10
6850.0
 20
480.0000000000003979
 30
0.0
 11
5775.0
 21
480.0000000000003979
 31
0.0
 70
     0
 13
4700.0
 23
870.0000000000002274
 33
0.0
 14
6850.0
 24
870.0000000000002274
 34
0.0
1001
ACADANNOTATIVE
1000
AnnotativeData
1002
{
1070
     1
1070
     0
1002
}
1001
ACAD
1000
DSTYLE
1002
{
1070
   287
1070
     4
1070
    40
1040
30.0
1070
   279
1070
     1
1070
   289
1070
     3
1070
   174
1070
     0
1070
   175
1070
     0
1070
   172
1070
     1
1002
}
  0
DIMENSION
  5
CF69
  8
0___30
  2
*D100
 10
4400.0000000000345608
 20
3170.0000000000031832
 30
0.0
 11
4400.0000000000345608
 21
2035.0
 31
0.0
 70
     0
 13
4700.0
 23
900.0000000000001137
 33
0.0
 14
4700.0
 24
3170.0000000000009095
 34
0.0
 50
90.0
1001
ACADANNOTATIVE
1000
AnnotativeData
1002
{
1070
     1
1070
     0
1002
}
1001
ACAD
1000
DSTYLE
1002
{
1070
   287
1070
     4
1070
    40
1040
30.0
1070
   279
1070
     1
1070
   289
1070
     3
1070
   174
1070
     0
1070
   175
1070
     0
1070
   172
1070
     1
1002
}
  0
DIMENSION
  5
CF6E
  8
0___30
  2
*D101
 10
4400.0000000000400178
 20
870.0000000000005684
 30
0.0
 11
4400.0000000000009095
 21
749.9999999999929514
 31
0.0
 70
   128
 13
4700.0
 23
900.0000000000001137
 33
0.0
 14
4700.0
 24
870.0000000000002274
 34
0.0
 50
90.0
1001
ACADANNOTATIVE
1000
AnnotativeData
1002
{
1070
     1
1070
     0
1002
}
1001
ACAD
1000
DSTYLE
1002
{
1070
   287
1070
     4
1070
    40
1040
30.0
1070
   279
1070
     1
1070
   289
1070
     3
1070
   174
1070
     0
1070
   175
1070
     0
1070
   172
1070
     1
1002
}
  0
DIMENSION
  5
CF73
  8
0___30
  2
*D102
 10
4250.0000000000345608
 20
3169.9999999999990905
 30
0.0
 11
4250.0000000000345608
 21
2019.9999999999959073
 31
0.0
 70
     0
 13
4737.500000005055881
 23
869.9999999999948841
 33
0.0
 14
4700.0
 24
3169.9999999999968168
 34
0.0
 50
90.0
1001
ACADANNOTATIVE
1000
AnnotativeData
1002
{
1070
     1
1070
     0
1002
}
1001
ACAD
1000
DSTYLE
1002
{
1070
   287
1070
     4
1070
    40
1040
30.0
1070
   279
1070
     1
1070
   289
1070
     3
1070
   174
1070
     0
1070
   175
1070
     0
1070
   172
1070
     1
1002
}
  0
LINE
  5
D0F7
  8
0
  6
PHANTOM
 10
3349.9999999999931788
 20
3093.0000000831169018
 30
0.0
 11
1045.0000000311858912
 21
3093.0000000831169018
 31
0.0
  0
LINE
  5
D0F9
  8
0
  6
PHANTOM
 10
1044.9999987695780419
 20
600.0
 30
0.0
 11
1045.0000000311858912
 21
3093.0000000831169018
 31
0.0
  0
DIMENSION
  5
D37B
  8
0___30
  2
*D103
 10
1049.9999999999920419
 20
3480.5000000050367817
 30
0.0
 11
2124.9999999999931788
 21
3480.5000000050367817
 31
0.0
 70
     0
 13
3199.9999999999931788
 23
3030.5000000050567905
 33
0.0
 14
1049.9999999999920419
 24
3030.5000000050567905
 34
0.0
 50
180.0
1001
ACADANNOTATIVE
1000
AnnotativeData
1002
{
1070
     1
1070
     0
1002
}
1001
ACAD
1000
DSTYLE
1002
{
1070
   287
1070
     4
1070
    40
1040
30.0
1070
   279
1070
     1
1070
   289
1070
     3
1070
   174
1070
     0
1070
   175
1070
     0
1070
   172
1070
     1
1002
}
  0
DIMENSION
  5
D3B2
  8
0___30
  2
*D104
 10
1050.0000000000009095
 20
450.0000000000197815
 30
0.0
 11
1587.5000000000020464
 21
450.0000000000197815
 31
0.0
 70
     0
 13
2125.0000000000031832
 23
900.0
 33
0.0
 14
1050.0000000000009095
 24
900.0
 34
0.0
 50
180.0
1001
ACADANNOTATIVE
1000
AnnotativeData
1002
{
1070
     1
1070
     0
1002
}
1001
ACAD
1000
DSTYLE
1002
{
1070
   287
1070
     4
1070
    40
1040
30.0
1070
   279
1070
     1
1070
   289
1070
     3
1070
   174
1070
     0
1070
   175
1070
     0
1070
   172
1070
     1
1002
}
  0
DIMENSION
  5
D3E5
  8
0___30
  2
*D105
 10
3200.0
 20
450.0000000000197815
 30
0.0
 11
2662.500000000001819
 21
450.0000000000197815
 31
0.0
 70
     0
 13
2125.0000000000031832
 23
900.0
 33
0.0
 14
3200.0
 24
900.0000000002213483
 34
0.0
 50
180.0
1001
ACADANNOTATIVE
1000
AnnotativeData
1002
{
1070
     1
1070
     0
1002
}
1001
ACAD
1000
DSTYLE
1002
{
1070
   287
1070
     4
1070
    40
1040
30.0
1070
   279
1070
     1
1070
   289
1070
     3
1070
   174
1070
     0
1070
   175
1070
     0
1070
   172
1070
     1
1002
}
  0
TEXT
  5
D464
  8
0
 10
1387.4999999999870397
 20
2403.0000000025311238
 30
0.0
 40
120.0
  1
個室型
  7
MS_ゴシック
 72
     4
 11
1587.4999999999879492
 21
2463.0000000025311238
 31
0.0
  0
POLYLINE
  5
D465
  8
HOJO
 66
     1
 10
0.0
 20
0.0
 30
0.0
 70
     1
  0
VERTEX
  5
F122
  8
HOJO
 10
1437.4999999999879492
 20
1403.0000000025290774
 30
0.0
  0
VERTEX
  5
F123
  8
HOJO
 10
1737.4999999999879492
 20
1403.0000000025290774
 30
0.0
  0
VERTEX
  5
F124
  8
HOJO
 10
1737.4999999999879492
 20
1603.0000000025290774
 30
0.0
  0
VERTEX
  5
F125
  8
HOJO
 10
1437.4999999999879492
 20
1603.0000000025290774
 30
0.0
  0
SEQEND
  5
F126
  8
HOJO
  0
TEXT
  5
D466
  8
0
 10
1491.4999999999879492
 20
1443.0000000025290774
 30
0.0
 40
120.0
  1
1台
  7
MS_ゴシック
 72
     4
 11
1587.4999999999879492
 21
1503.0000000025290774
 31
0.0
  0
POLYLINE
  5
D467
  8
HOJO
 66
     1
 10
0.0
 20
0.0
 30
0.0
 70
     1
  0
VERTEX
  5
F127
  8
HOJO
 10
1437.4999999999879492
 20
1203.0000000025290774
 30
0.0
  0
VERTEX
  5
F128
  8
HOJO
 10
1737.4999999999879492
 20
1203.0000000025290774
 30
0.0
  0
VERTEX
  5
F129
  8
HOJO
 10
1737.4999999999879492
 20
1403.0000000025290774
 30
0.0
  0
VERTEX
  5
F12A
  8
HOJO
 10
1437.4999999999879492
 20
1403.0000000025290774
 30
0.0
  0
SEQEND
  5
F12B
  8
HOJO
  0
TEXT
  5
D468
  8
0
 10
1422.4999999999879492
 20
1228.0000000025290774
 30
0.0
 40
150.0
  1
(  )
  7
MS_ゴシック
 72
     4
 11
1587.4999999999879492
 21
1303.0000000025290774
 31
0.0
  0
TEXT
  5
D469
  8
0
 10
1462.4999999999879492
 20
1228.0000000025290774
 30
0.0
 40
150.0
  1
**
  7
MS_ゴシック
 72
     4
 11
1587.4999999999879492
 21
1303.0000000025290774
 31
0.0
  0
DIMENSION
  5
D46A
  8
0___30
 62
    10
  2
*D106
 10
4632.5
 20
7565.0
 30
0.0
 11
4162.5
 21
7565.0
 31
0.0
 70
     0
 13
3692.5000000000009095
 23
7197.5000000000009095
 33
0.0
 14
4632.5
 24
7197.5000000000009095
 34
0.0
1001
ACADANNOTATIVE
1000
AnnotativeData
1002
{
1070
     1
1070
     0
1002
}
1001
ACAD
1000
DSTYLE
1002
{
1070
   287
1070
     4
1070
    40
1040
30.0
1070
   279
1070
     1
1070
   289
1070
     3
1070
   174
1070
     0
1070
   175
1070
     0
1070
   172
1070
     1
1070
   178
1070
    10
1002
}
  0
DIMENSION
  5
D51D
  8
0___30
 62
    10
  2
*D107
 10
5000.0000000000172804
 20
5517.5000000000009095
 30
0.0
 11
5000.0000000000172804
 21
6357.5000000000009095
 31
0.0
 70
     0
 13
4632.5
 23
7197.5000000000009095
 33
0.0
 14
4632.5
 24
5517.5
 34
0.0
 50
270.0
1001
ACADANNOTATIVE
1000
AnnotativeData
1002
{
1070
     1
1070
     0
1002
}
1001
ACAD
1000
DSTYLE
1002
{
1070
   287
1070
     4
1070
    40
1040
30.0
1070
   279
1070
     1
1070
   289
1070
     3
1070
   174
1070
     0
1070
   175
1070
     0
1070
   172
1070
     1
1070
   178
1070
    10
1002
}
  0
LINE
  5
D5D2
  8
011_図枠
 10
0.0
 20
4080.0
 30
0.0
 11
12150.0
 21
4080.0
 31
0.0
  0
INSERT
  5
D5EA
  8
0
  2
*U75
 10
0.0
 20
0.0
 30
0.0
  0
LINE
  5
D5F0
  8
011_図枠
 10
300.0
 20
0.0
 30
0.0
 11
300.0
 21
8160.0
 31
0.0
  0
LINE
  5
D5F1
  8
HOJO
 10
0.0
 20
8160.0
 30
0.0
 11
300.0
 21
4080.0
 31
0.0
  0
INSERT
  5
D5F2
  8
0
  2
*U76
 10
0.0
 20
0.0
 30
0.0
  0
LINE
  5
D5F6
  8
HOJO
 10
0.0
 20
4080.0
 30
0.0
 11
300.0
 21
0.0
 31
0.0
  0
POLYLINE
  5
D603
  8
HOJO
  6
HIDDEN
 66
     1
 10
0.0
 20
0.0
 30
0.0
 70
     1
  0
VERTEX
  5
F146
  8
HOJO
  6
HIDDEN
 10
300.0000000000002842
 20
300.0
 30
0.0
  0
VERTEX
  5
F147
  8
HOJO
  6
HIDDEN
 10
11850.0
 20
300.0
 30
0.0
  0
VERTEX
  5
F148
  8
HOJO
  6
HIDDEN
 10
11849.9999999999909051
 20
7859.999999999998181
 30
0.0
  0
VERTEX
  5
F149
  8
HOJO
  6
HIDDEN
 10
299.9999999999964189
 20
7860.0
 30
0.0
  0
SEQEND
  5
F14A
  8
HOJO
  6
HIDDEN
  0
LINE
  5
D722
  8
011_図枠
 10
2875.0
 20
4080.0
 30
0.0
 11
2875.0
 21
8160.0
 31
0.0
  0
LINE
  5
D723
  8
011_図枠
 10
3950.0
 20
-0.0000000000000179
 30
0.0
 11
3950.0
 21
4080.0
 31
0.0
  0
INSERT
  5
D74A
  8
0
  2
*U77
 10
0.0
 20
0.0
 30
0.0
  0
LINE
  5
D759
  8
011_図枠
 10
299.9999999999998863
 20
300.0000000000003979
 30
0.0
 11
12150.0
 21
300.0000000000003979
 31
0.0
  0
LINE
  5
D75A
  8
011_図枠
 10
300.0
 20
4380.0
 30
0.0
 11
12150.0
 21
4380.0
 31
0.0
  0
LINE
  5
D773
  8
011_図枠
 10
7600.0
 20
-0.0000000000000179
 30
0.0
 11
7600.0
 21
4080.0
 31
0.0
  0
LINE
  5
D774
  8
011_図枠
 10
5450.0
 20
4080.0
 30
0.0
 11
5450.0
 21
8160.0
 31
0.0
  0
INSERT
  5
D804
  8
0
  2
*U78
 10
0.0
 20
0.0
 30
0.0
  0
INSERT
  5
D80A
  8
0
  2
*U79
 10
0.0
 20
0.0
 30
0.0
  0
INSERT
  5
D810
  8
0
  2
*U80
 10
0.0
 20
0.0
 30
0.0
  0
INSERT
  5
D816
  8
0
  2
*U81
 10
0.0
 20
0.0
 30
0.0
  0
INSERT
  5
D81C
  8
0
  2
*U82
 10
0.0
 20
0.0
 30
0.0
  0
POLYLINE
  5
DEDF
  8
HOJO
  6
HIDDEN
 66
     1
 10
0.0
 20
0.0
 30
0.0
 70
     1
  0
VERTEX
  5
F14B
  8
HOJO
  6
HIDDEN
 10
2124.999999999998181
 20
4980.0
 30
0.0
  0
VERTEX
  5
F14C
  8
HOJO
  6
HIDDEN
 10
2124.9999999999890861
 20
7110.5000000050577
 30
0.0
  0
VERTEX
  5
F14D
  8
HOJO
  6
HIDDEN
 10
1049.9999999999890861
 20
7110.5000000050577
 30
0.0
  0
VERTEX
  5
F14E
  8
HOJO
  6
HIDDEN
 10
1049.9999999999979536
 20
4980.0
 30
0.0
  0
SEQEND
  5
F14F
  8
HOJO
  6
HIDDEN
  0
INSERT
  5
DF56
  8
0
  2
A$CD48D9E45
 10
3692.5000000000009095
 20
5517.5
 30
0.0
  0
LINE
  5
DF57
  8
0
  6
PHANTOM
 10
3692.5000000000009095
 20
5397.5
 30
0.0
 11
4632.5
 21
5047.5
 31
0.0
  0
LINE
  5
DF58
  8
0
  6
PHANTOM
 10
3692.5000000000009095
 20
5047.5
 30
0.0
 11
4632.5
 21
5397.5
 31
0.0
  0
INSERT
  5
DF59
  8
0
  2
*U83
 10
0.0
 20
0.0
 30
0.0
  0
DIMENSION
  5
DFCD
  8
0___30
  2
*D108
 10
4700.0
 20
4709.999999999996362
 30
0.0
 11
4162.5
 21
4709.999999999996362
 31
0.0
 70
     0
 13
3625.0
 23
4950.0
 33
0.0
 14
4700.0
 24
4950.0
 34
0.0
1001
ACADANNOTATIVE
1000
AnnotativeData
1002
{
1070
     1
1070
     0
1002
}
1001
ACAD
1000
DSTYLE
1002
{
1070
   287
1070
     4
1070
    40
1040
30.0
1070
   279
1070
     1
1070
   289
1070
     3
1070
   174
1070
     0
1070
   175
1070
     0
1070
   172
1070
     1
1002
}
  0
DIMENSION
  5
E01D
  8
0___30
 62
    10
  2
*D109
 10
5000.0000000000200089
 20
5397.500000000001819
 30
0.0
 11
5000.0000000000200089
 21
5222.5
 31
0.0
 70
     0
 13
4632.5
 23
5047.5
 33
0.0
 14
4632.5
 24
5397.5
 34
0.0
 50
270.0
1001
ACADANNOTATIVE
1000
AnnotativeData
1002
{
1070
     1
1070
     0
1002
}
1001
ACAD
1000
DSTYLE
1002
{
1070
   287
1070
     4
1070
    40
1040
30.0
1070
   279
1070
     1
1070
   289
1070
     3
1070
   174
1070
     0
1070
   175
1070
     0
1070
   172
1070
     1
1070
   178
1070
    10
1002
}
  0
POLYLINE
  5
E037
  8
HOJO
  6
HIDDEN
 66
     1
 10
0.0
 20
0.0
 30
0.0
 70
     1
  0
VERTEX
  5
F16F
  8
HOJO
  6
HIDDEN
 10
3625.0
 20
4980.0
 30
0.0
  0
VERTEX
  5
F170
  8
HOJO
  6
HIDDEN
 10
4700.0
 20
4980.0
 30
0.0
  0
VERTEX
  5
F171
  8
HOJO
  6
HIDDEN
 10
4700.0
 20
7265.0
 30
0.0
  0
VERTEX
  5
F172
  8
HOJO
  6
HIDDEN
 10
3625.0
 20
7265.0
 30
0.0
  0
SEQEND
  5
F173
  8
HOJO
  6
HIDDEN
  0
POLYLINE
  5
E044
  8
HOJO
  6
HIDDEN
 66
     1
 10
0.0
 20
0.0
 30
0.0
 70
     1
  0
VERTEX
  5
F174
  8
HOJO
  6
HIDDEN
 10
8330.5
 20
4979.9999999999918145
 30
0.0
  0
VERTEX
  5
F175
  8
HOJO
  6
HIDDEN
 10
6200.0
 20
4980.0
 30
0.0
  0
VERTEX
  5
F176
  8
HOJO
  6
HIDDEN
 10
6200.0
 20
7265.0
 30
0.0
  0
VERTEX
  5
F177
  8
HOJO
  6
HIDDEN
 10
8330.5
 20
7264.9999999999899956
 30
0.0
  0
SEQEND
  5
F178
  8
HOJO
  6
HIDDEN
  0
POLYLINE
  5
E066
  8
0
 66
     1
 10
0.0
 20
0.0
 30
0.0
 70
     1
  0
VERTEX
  5
F179
  8
0
 10
8323.0000000050567905
 20
4949.9999999999918145
 30
0.0
  0
VERTEX
  5
F17A
  8
0
 10
8263.0000000050567905
 20
4949.9999999999918145
 30
0.0
  0
VERTEX
  5
F17B
  8
0
 10
8263.0000000050567905
 20
4979.9999999999918145
 30
0.0
  0
VERTEX
  5
F17C
  8
0
 10
8323.0000000050567905
 20
4979.9999999999918145
 30
0.0
  0
SEQEND
  5
F17D
  8
0
  0
POLYLINE
  5
E067
  8
0
 66
     1
 10
0.0
 20
0.0
 30
0.0
 70
     1
  0
VERTEX
  5
F17E
  8
0
 10
8321.0000000050567905
 20
4951.9999999999909051
 30
0.0
  0
VERTEX
  5
F17F
  8
0
 10
8265.0000000050567905
 20
4951.9999999999909051
 30
0.0
  0
VERTEX
  5
F180
  8
0
 10
8265.0000000050567905
 20
4977.9999999999899956
 30
0.0
  0
VERTEX
  5
F181
  8
0
 10
8321.0000000050567905
 20
4977.9999999999899956
 30
0.0
  0
SEQEND
  5
F182
  8
0
  0
POLYLINE
  5
E068
  8
0
 66
     1
 10
0.0
 20
0.0
 30
0.0
 70
     1
  0
VERTEX
  5
F183
  8
0
 10
7293.0000000050549716
 20
4949.9999999999918145
 30
0.0
  0
VERTEX
  5
F184
  8
0
 10
7233.000000005055881
 20
4949.9999999999918145
 30
0.0
  0
VERTEX
  5
F185
  8
0
 10
7233.000000005055881
 20
4979.9999999999918145
 30
0.0
  0
VERTEX
  5
F186
  8
0
 10
7293.0000000050549716
 20
4979.9999999999918145
 30
0.0
  0
SEQEND
  5
F187
  8
0
  0
POLYLINE
  5
E069
  8
0
 66
     1
 10
0.0
 20
0.0
 30
0.0
 70
     1
  0
VERTEX
  5
F188
  8
0
 10
7291.0000000050549716
 20
4951.9999999999909051
 30
0.0
  0
VERTEX
  5
F189
  8
0
 10
7235.0000000050549716
 20
4951.9999999999909051
 30
0.0
  0
VERTEX
  5
F18A
  8
0
 10
7235.0000000050549716
 20
4977.9999999999899956
 30
0.0
  0
VERTEX
  5
F18B
  8
0
 10
7291.0000000050549716
 20
4977.9999999999899956
 30
0.0
  0
SEQEND
  5
F18C
  8
0
  0
POLYLINE
  5
E06A
  8
0
 66
     1
 10
0.0
 20
0.0
 30
0.0
 70
     1
  0
VERTEX
  5
F18D
  8
0
 10
6263.0000000050577
 20
4949.9999999999918145
 30
0.0
  0
VERTEX
  5
F18E
  8
0
 10
6203.0000000050577
 20
4949.9999999999918145
 30
0.0
  0
VERTEX
  5
F18F
  8
0
 10
6203.0000000050577
 20
4979.9999999999918145
 30
0.0
  0
VERTEX
  5
F190
  8
0
 10
6263.0000000050577
 20
4979.9999999999918145
 30
0.0
  0
SEQEND
  5
F191
  8
0
  0
POLYLINE
  5
E06B
  8
0
 66
     1
 10
0.0
 20
0.0
 30
0.0
 70
     1
  0
VERTEX
  5
F192
  8
0
 10
6261.0000000050577
 20
4951.9999999999909051
 30
0.0
  0
VERTEX
  5
F193
  8
0
 10
6205.0000000050577
 20
4951.9999999999909051
 30
0.0
  0
VERTEX
  5
F194
  8
0
 10
6205.0000000050577
 20
4977.9999999999899956
 30
0.0
  0
VERTEX
  5
F195
  8
0
 10
6261.0000000050577
 20
4977.9999999999899956
 30
0.0
  0
SEQEND
  5
F196
  8
0
  0
INSERT
  5
E0C5
  8
0
  6
CONTINUOUS
  2
*U84
 10
0.0
 20
0.0
 30
0.0
1001
GRADIENTCOLOR1ACI
1070
     5
1001
GRADIENTCOLOR2ACI
1070
     2
1001
ACAD
1002
{
1000
R14_HATCH_DATA
1000
E0C5
1011
1.0
1021
0.0
1031
0.0
1021
0.0
1031
0.0
1011
0.0
1021
0.0
1031
0.0
1021
1.0
1031
0.0
1011
0.0
1021
0.0
1031
0.0
1021
0.0
1031
1.0
1040
0.0
1010
0.0
1020
0.0
1030
1.0
1000
SOLID
1070
     1
1070
     0
1071
        1
1071
        7
1070
     0
1070
     1
1071
        3
1040
1587.5000000000070486
1040
870.0
1040
1518.2179676972521065
1040
750.0
1040
1656.7820323027619906
1040
750.0
1071
        0
1070
     1
1070
     1
1040
0.6868630920821949
1071
        1
1040
1592.6159960249240157
1040
787.7296092787036059
1040
0.0
1002
}
  0
POLYLINE
  5
E0C6
  8
0
 66
     1
 10
0.0
 20
0.0
 30
0.0
 70
     1
  0
VERTEX
  5
F197
  8
0
 10
1587.5000000000070486
 20
870.0
 30
0.0
  0
VERTEX
  5
F198
  8
0
 10
1518.2179676972521065
 20
750.0
 30
0.0
  0
VERTEX
  5
F199
  8
0
 10
1656.7820323027619906
 20
750.0
 30
0.0
  0
VERTEX
  5
F19A
  8
0
 10
1587.5000000000070486
 20
870.0
 30
0.0
  0
SEQEND
  5
F19B
  8
0
  0
POLYLINE
  5
E0C7
  8
HOJO
  6
HIDDEN
 66
     1
 10
0.0
 20
0.0
 30
0.0
 70
     1
  0
VERTEX
  5
F19C
  8
HOJO
  6
HIDDEN
 10
3200.0
 20
900.0
 30
0.0
  0
VERTEX
  5
F19D
  8
HOJO
  6
HIDDEN
 10
3199.9999999999931788
 20
3030.5000000050567905
 30
0.0
  0
VERTEX
  5
F19E
  8
HOJO
  6
HIDDEN
 10
1049.9999999999920419
 20
3030.5000000050567905
 30
0.0
  0
VERTEX
  5
F19F
  8
HOJO
  6
HIDDEN
 10
1050.0
 20
900.0
 30
0.0
  0
SEQEND
  5
F1A0
  8
HOJO
  6
HIDDEN
  0
POLYLINE
  5
E0C8
  8
HOJO
  6
HIDDEN
 66
     1
 10
0.0
 20
0.0
 30
0.0
 70
     1
  0
VERTEX
  5
F1A1
  8
HOJO
  6
HIDDEN
 10
4700.0
 20
900.0000000000001137
 30
0.0
  0
VERTEX
  5
F1A2
  8
HOJO
  6
HIDDEN
 10
6850.0
 20
900.0000000000001137
 30
0.0
  0
VERTEX
  5
F1A3
  8
HOJO
  6
HIDDEN
 10
6850.0
 20
3185.0
 30
0.0
  0
VERTEX
  5
F1A4
  8
HOJO
  6
HIDDEN
 10
4700.0
 20
3185.0
 30
0.0
  0
SEQEND
  5
F1A5
  8
HOJO
  6
HIDDEN
  0
TEXT
  5
E0FD
  8
0
 10
2462.4999999999881766
 20
2403.0000000025311238
 30
0.0
 40
120.0
  1
個室型
  7
MS_ゴシック
 72
     4
 11
2662.4999999999881766
 21
2463.0000000025311238
 31
0.0
  0
POLYLINE
  5
E0FE
  8
HOJO
 66
     1
 10
0.0
 20
0.0
 30
0.0
 70
     1
  0
VERTEX
  5
F1A6
  8
HOJO
 10
2512.4999999999890861
 20
1403.0000000025290774
 30
0.0
  0
VERTEX
  5
F1A7
  8
HOJO
 10
2812.4999999999881766
 20
1403.0000000025290774
 30
0.0
  0
VERTEX
  5
F1A8
  8
HOJO
 10
2812.4999999999881766
 20
1603.0000000025290774
 30
0.0
  0
VERTEX
  5
F1A9
  8
HOJO
 10
2512.4999999999890861
 20
1603.0000000025290774
 30
0.0
  0
SEQEND
  5
F1AA
  8
HOJO
  0
TEXT
  5
E0FF
  8
0
 10
2566.4999999999881766
 20
1443.0000000025290774
 30
0.0
 40
120.0
  1
1台
  7
MS_ゴシック
 72
     4
 11
2662.4999999999881766
 21
1503.0000000025290774
 31
0.0
  0
POLYLINE
  5
E100
  8
HOJO
 66
     1
 10
0.0
 20
0.0
 30
0.0
 70
     1
  0
VERTEX
  5
F1AB
  8
HOJO
 10
2512.4999999999890861
 20
1203.0000000025290774
 30
0.0
  0
VERTEX
  5
F1AC
  8
HOJO
 10
2812.4999999999881766
 20
1203.0000000025290774
 30
0.0
  0
VERTEX
  5
F1AD
  8
HOJO
 10
2812.4999999999881766
 20
1403.0000000025290774
 30
0.0
  0
VERTEX
  5
F1AE
  8
HOJO
 10
2512.4999999999890861
 20
1403.0000000025290774
 30
0.0
  0
SEQEND
  5
F1AF
  8
HOJO
  0
TEXT
  5
E101
  8
0
 10
2497.4999999999881766
 20
1228.0000000025290774
 30
0.0
 40
150.0
  1
(  )
  7
MS_ゴシック
 72
     4
 11
2662.4999999999881766
 21
1303.0000000025290774
 31
0.0
  0
TEXT
  5
E102
  8
0
 10
2537.4999999999881766
 20
1228.0000000025290774
 30
0.0
 40
150.0
  1
**
  7
MS_ゴシック
 72
     4
 11
2662.4999999999881766
 21
1303.0000000025290774
 31
0.0
  0
INSERT
  5
E104
  8
0
  6
CONTINUOUS
  2
*U85
 10
0.0
 20
0.0
 30
0.0
1001
GRADIENTCOLOR1ACI
1070
     5
1001
GRADIENTCOLOR2ACI
1070
     2
1001
ACAD
1002
{
1000
R14_HATCH_DATA
1000
E104
1011
1.0
1021
0.0
1031
0.0
1021
0.0
1031
0.0
1011
0.0
1021
0.0
1031
0.0
1021
1.0
1031
0.0
1011
0.0
1021
0.0
1031
0.0
1021
0.0
1031
1.0
1040
0.0
1010
0.0
1020
0.0
1030
1.0
1000
SOLID
1070
     1
1070
     0
1071
        1
1071
        7
1070
     0
1070
     1
1071
        3
1040
2662.5000000000081855
1040
870.0
1040
2593.2179676972518791
1040
750.0
1040
2731.7820323027631275
1040
750.0
1071
        0
1070
     1
1070
     1
1040
0.6868630920821949
1071
        1
1040
2667.6159960249251526
1040
787.7296092787036059
1040
0.0
1002
}
  0
POLYLINE
  5
E105
  8
0
 66
     1
 10
0.0
 20
0.0
 30
0.0
 70
     1
  0
VERTEX
  5
F1B0
  8
0
 10
2662.5000000000081855
 20
870.0
 30
0.0
  0
VERTEX
  5
F1B1
  8
0
 10
2593.2179676972518791
 20
750.0
 30
0.0
  0
VERTEX
  5
F1B2
  8
0
 10
2731.7820323027631275
 20
750.0
 30
0.0
  0
VERTEX
  5
F1B3
  8
0
 10
2662.5000000000081855
 20
870.0
 30
0.0
  0
SEQEND
  5
F1B4
  8
0
  0
DIMENSION
  5
E139
  8
0___30
  2
*D110
 10
749.9999997434947545
 20
7110.5000000050604285
 30
0.0
 11
749.9999997434964598
 21
6045.2500000025302143
 31
0.0
 70
     0
 13
1050.0
 23
4980.0
 33
0.0
 14
1049.9999999999870397
 24
7110.5000000050577
 34
0.0
 50
90.0
1001
ACADANNOTATIVE
1000
AnnotativeData
1002
{
1070
     1
1070
     0
1002
}
1001
ACAD
1000
DSTYLE
1002
{
1070
   287
1070
     4
1070
    40
1040
30.0
1070
   279
1070
     1
1070
   289
1070
     3
1070
   174
1070
     0
1070
   175
1070
     0
1070
   172
1070
     1
1002
}
  0
DIMENSION
  5
E13E
  8
0___30
  2
*D111
 10
749.9999997434945271
 20
7110.5000000050604285
 30
0.0
 11
749.9999997434878196
 21
7322.9945618432839183
 31
0.0
 70
   128
 13
1049.9999999999899956
 23
7173.0000000831178113
 33
0.0
 14
1049.9999999999870397
 24
7110.5000000050577
 34
0.0
 50
90.0
1001
ACADANNOTATIVE
1000
AnnotativeData
1002
{
1070
     1
1070
     0
1002
}
1001
ACAD
1000
DSTYLE
1002
{
1070
   287
1070
     4
1070
    40
1040
30.0
1070
   279
1070
     1
1070
   289
1070
     3
1070
   174
1070
     0
1070
   175
1070
     0
1070
   172
1070
     1
1002
}
  0
DIMENSION
  5
E143
  8
0___30
  2
*D112
 10
1587.5000000000040927
 20
7103.0000000050622475
 30
0.0
 11
1587.4999999999920419
 21
7293.0000000831223588
 31
0.0
 70
   128
 13
1587.4999999999909051
 23
7173.0000000831178113
 33
0.0
 14
1587.4999999999920419
 24
7103.0000000050567905
 34
0.0
 50
90.0
1001
ACADANNOTATIVE
1000
AnnotativeData
1002
{
1070
     1
1070
     0
1002
}
1001
ACAD
1000
DSTYLE
1002
{
1070
   287
1070
     4
1070
    40
1040
30.0
1070
   279
1070
     1
1070
   289
1070
     3
1070
   174
1070
     0
1070
   175
1070
     0
1070
   172
1070
     1
1002
}
  0
DIMENSION
  5
E148
  8
0___30
  2
*D113
 10
1049.9999999999899956
 20
7560.5000000050367817
 30
0.0
 11
924.9999999999904503
 21
7560.5000000050367817
 31
0.0
 70
   128
 13
1044.9999999999909051
 23
7110.5000000050577
 33
0.0
 14
1049.9999999999899956
 24
7110.5000000050577
 34
0.0
 50
180.0
1001
ACADANNOTATIVE
1000
AnnotativeData
1002
{
1070
     1
1070
     0
1002
}
1001
ACAD
1000
DSTYLE
1002
{
1070
   287
1070
     4
1070
    40
1040
30.0
1070
   279
1070
     1
1070
   289
1070
     3
1070
   174
1070
     0
1070
   175
1070
     0
1070
   172
1070
     1
1002
}
  0
DIMENSION
  5
E14D
  8
0___30
  2
*D114
 10
1049.9999999999940883
 20
7560.5000000050367817
 30
0.0
 11
1587.4999999999929514
 21
7560.5000000050367817
 31
0.0
 70
     0
 13
2124.9999999999931788
 23
7110.5000000050577
 33
0.0
 14
1049.9999999999940883
 24
7110.5000000050577
 34
0.0
 50
180.0
1001
ACADANNOTATIVE
1000
AnnotativeData
1002
{
1070
     1
1070
     0
1002
}
1001
ACAD
1000
DSTYLE
1002
{
1070
   287
1070
     4
1070
    40
1040
30.0
1070
   279
1070
     1
1070
   289
1070
     3
1070
   174
1070
     0
1070
   175
1070
     0
1070
   172
1070
     1
1002
}
  0
TEXT
  5
E152
  8
0
 10
1387.4999999999870397
 20
6483.0000000025283953
 30
0.0
 40
120.0
  1
個室型
  7
MS_ゴシック
 72
     4
 11
1587.4999999999879492
 21
6543.0000000025283953
 31
0.0
  0
POLYLINE
  5
E153
  8
HOJO
 66
     1
 10
0.0
 20
0.0
 30
0.0
 70
     1
  0
VERTEX
  5
F1FB
  8
HOJO
 10
1437.4999999999879492
 20
5483.0000000025293048
 30
0.0
  0
VERTEX
  5
F1FC
  8
HOJO
 10
1737.4999999999879492
 20
5483.0000000025293048
 30
0.0
  0
VERTEX
  5
F1FD
  8
HOJO
 10
1737.4999999999879492
 20
5683.0000000025293048
 30
0.0
  0
VERTEX
  5
F1FE
  8
HOJO
 10
1437.4999999999879492
 20
5683.0000000025293048
 30
0.0
  0
SEQEND
  5
F1FF
  8
HOJO
  0
TEXT
  5
E154
  8
0
 10
1491.4999999999879492
 20
5523.0000000025293048
 30
0.0
 40
120.0
  1
1台
  7
MS_ゴシック
 72
     4
 11
1587.4999999999879492
 21
5583.0000000025283953
 31
0.0
  0
POLYLINE
  5
E155
  8
HOJO
 66
     1
 10
0.0
 20
0.0
 30
0.0
 70
     1
  0
VERTEX
  5
F200
  8
HOJO
 10
1437.4999999999879492
 20
5283.0000000025293048
 30
0.0
  0
VERTEX
  5
F201
  8
HOJO
 10
1737.4999999999879492
 20
5283.0000000025293048
 30
0.0
  0
VERTEX
  5
F202
  8
HOJO
 10
1737.4999999999879492
 20
5483.0000000025293048
 30
0.0
  0
VERTEX
  5
F203
  8
HOJO
 10
1437.4999999999879492
 20
5483.0000000025293048
 30
0.0
  0
SEQEND
  5
F204
  8
HOJO
  0
TEXT
  5
E156
  8
0
 10
1422.4999999999879492
 20
5308.0000000025293048
 30
0.0
 40
150.0
  1
(  )
  7
MS_ゴシック
 72
     4
 11
1587.4999999999879492
 21
5383.0000000025283953
 31
0.0
  0
TEXT
  5
E157
  8
0
 10
1462.4999999999879492
 20
5308.0000000025293048
 30
0.0
 40
150.0
  1
**
  7
MS_ゴシック
 72
     4
 11
1587.4999999999879492
 21
5383.0000000025283953
 31
0.0
  0
INSERT
  5
E159
  8
0
  6
CONTINUOUS
  2
*U86
 10
0.0
 20
0.0
 30
0.0
1001
GRADIENTCOLOR1ACI
1070
     5
1001
GRADIENTCOLOR2ACI
1070
     2
1001
ACAD
1002
{
1000
R14_HATCH_DATA
1000
E159
1011
1.0
1021
0.0
1031
0.0
1021
0.0
1031
0.0
1011
0.0
1021
0.0
1031
0.0
1021
1.0
1031
0.0
1011
0.0
1021
0.0
1031
0.0
1021
0.0
1031
1.0
1040
0.0
1010
0.0
1020
0.0
1030
1.0
1000
SOLID
1070
     1
1070
     0
1071
        1
1071
        7
1070
     0
1070
     1
1071
        3
1040
1587.5000000000070486
1040
4950.0
1040
1518.2179676972521065
1040
4830.0
1040
1656.7820323027629001
1040
4830.0
1071
        0
1070
     1
1070
     1
1040
0.6868630920821949
1071
        1
1040
1592.6159960249240157
1040
4867.7296092787028101
1040
0.0
1002
}
  0
POLYLINE
  5
E15A
  8
0
 66
     1
 10
0.0
 20
0.0
 30
0.0
 70
     1
  0
VERTEX
  5
F205
  8
0
 10
1587.5000000000070486
 20
4950.0
 30
0.0
  0
VERTEX
  5
F206
  8
0
 10
1518.2179676972521065
 20
4830.0
 30
0.0
  0
VERTEX
  5
F207
  8
0
 10
1656.7820323027629001
 20
4830.0
 30
0.0
  0
VERTEX
  5
F208
  8
0
 10
1587.5000000000070486
 20
4950.0
 30
0.0
  0
SEQEND
  5
F209
  8
0
  0
INSERT
  5
E1A6
  8
0
  2
A$CD48D9E45
 10
4767.5
 20
1437.5
 30
0.0
  0
LINE
  5
E1B1
  8
0
  6
PHANTOM
 10
4767.5
 20
1317.5
 30
0.0
 11
5707.5
 21
967.5000000000002274
 31
0.0
  0
LINE
  5
E1B2
  8
0
  6
PHANTOM
 10
4767.5
 20
967.5000000000002274
 30
0.0
 11
5707.5
 21
1317.5
 31
0.0
  0
INSERT
  5
E1B3
  8
0
  2
*U87
 10
0.0
 20
0.0
 30
0.0
  0
INSERT
  5
E1DE
  8
0
  2
A$CD48D9E45
 10
5842.5000000000009095
 20
1437.5
 30
0.0
  0
DIMENSION
  5
E1DF
  8
0___30
 62
    10
  2
*D115
 10
6782.5
 20
3485.0000000000009095
 30
0.0
 11
6312.5
 21
3485.0000000000009095
 31
0.0
 70
     0
 13
5842.5000000000009095
 23
3117.5000000000009095
 33
0.0
 14
6782.5
 24
3117.5000000000009095
 34
0.0
1001
ACADANNOTATIVE
1000
AnnotativeData
1002
{
1070
     1
1070
     0
1002
}
1001
ACAD
1000
DSTYLE
1002
{
1070
   287
1070
     4
1070
    40
1040
30.0
1070
   279
1070
     1
1070
   289
1070
     3
1070
   174
1070
     0
1070
   175
1070
     0
1070
   172
1070
     1
1070
   178
1070
    10
1002
}
  0
DIMENSION
  5
E1E4
  8
0___30
 62
    10
  2
*D116
 10
7150.0000000000336513
 20
1437.5
 30
0.0
 11
7150.0000000000327418
 21
2277.4999999999990905
 31
0.0
 70
     0
 13
6782.5
 23
3117.5000000000009095
 33
0.0
 14
6782.5
 24
1437.5
 34
0.0
 50
270.0
1001
ACADANNOTATIVE
1000
AnnotativeData
1002
{
1070
     1
1070
     0
1002
}
1001
ACAD
1000
DSTYLE
1002
{
1070
   287
1070
     4
1070
    40
1040
30.0
1070
   279
1070
     1
1070
   289
1070
     3
1070
   174
1070
     0
1070
   175
1070
     0
1070
   172
1070
     1
1070
   178
1070
    10
1002
}
  0
LINE
  5
E1E9
  8
0
  6
PHANTOM
 10
5842.5000000000009095
 20
1317.5
 30
0.0
 11
6782.5
 21
967.5000000000002274
 31
0.0
  0
LINE
  5
E1EA
  8
0
  6
PHANTOM
 10
5842.5000000000009095
 20
967.5000000000002274
 30
0.0
 11
6782.5
 21
1317.5
 31
0.0
  0
INSERT
  5
E1EB
  8
0
  2
*U88
 10
0.0
 20
0.0
 30
0.0
  0
DIMENSION
  5
E1EC
  8
0___30
 62
    10
  2
*D117
 10
7150.0000000000372893
 20
1317.5
 30
0.0
 11
7150.0000000000336513
 21
1142.4999999999979536
 31
0.0
 70
     0
 13
6782.5
 23
967.5000000000002274
 33
0.0
 14
6782.5
 24
1317.5
 34
0.0
 50
270.0
1001
ACADANNOTATIVE
1000
AnnotativeData
1002
{
1070
     1
1070
     0
1002
}
1001
ACAD
1000
DSTYLE
1002
{
1070
   287
1070
     4
1070
    40
1040
30.0
1070
   279
1070
     1
1070
   289
1070
     3
1070
   174
1070
     0
1070
   175
1070
     0
1070
   172
1070
     1
1070
   178
1070
    10
1002
}
  0
POLYLINE
  5
E67F
  8
0
 66
     1
 10
0.0
 20
0.0
 30
0.0
 70
     1
  0
VERTEX
  5
F231
  8
0
 10
10473.0000000050495146
 20
870.0000000000002274
 30
0.0
  0
VERTEX
  5
F232
  8
0
 10
10413.0000000050495146
 20
870.0000000000002274
 30
0.0
  0
VERTEX
  5
F233
  8
0
 10
10413.0000000050495146
 20
900.0000000000001137
 30
0.0
  0
VERTEX
  5
F234
  8
0
 10
10473.0000000050495146
 20
900.0000000000001137
 30
0.0
  0
SEQEND
  5
F235
  8
0
  0
POLYLINE
  5
E680
  8
0
 66
     1
 10
0.0
 20
0.0
 30
0.0
 70
     1
  0
VERTEX
  5
F236
  8
0
 10
10471.0000000050495146
 20
872.0000000000002274
 30
0.0
  0
VERTEX
  5
F237
  8
0
 10
10415.0000000050495146
 20
872.0000000000002274
 30
0.0
  0
VERTEX
  5
F238
  8
0
 10
10415.0000000050495146
 20
898.0000000000002274
 30
0.0
  0
VERTEX
  5
F239
  8
0
 10
10471.0000000050495146
 20
898.0000000000002274
 30
0.0
  0
SEQEND
  5
F23A
  8
0
  0
POLYLINE
  5
E681
  8
0
 66
     1
 10
0.0
 20
0.0
 30
0.0
 70
     1
  0
VERTEX
  5
F23B
  8
0
 10
9443.0000000050567905
 20
870.0000000000002274
 30
0.0
  0
VERTEX
  5
F23C
  8
0
 10
9383.0000000050586095
 20
870.0000000000002274
 30
0.0
  0
VERTEX
  5
F23D
  8
0
 10
9383.0000000050586095
 20
900.0000000000001137
 30
0.0
  0
VERTEX
  5
F23E
  8
0
 10
9443.0000000050567905
 20
900.0000000000001137
 30
0.0
  0
SEQEND
  5
F23F
  8
0
  0
POLYLINE
  5
E682
  8
0
 66
     1
 10
0.0
 20
0.0
 30
0.0
 70
     1
  0
VERTEX
  5
F240
  8
0
 10
9441.0000000050586095
 20
872.0000000000002274
 30
0.0
  0
VERTEX
  5
F241
  8
0
 10
9385.0000000050567905
 20
872.0000000000002274
 30
0.0
  0
VERTEX
  5
F242
  8
0
 10
9385.0000000050567905
 20
898.0000000000002274
 30
0.0
  0
VERTEX
  5
F243
  8
0
 10
9441.0000000050586095
 20
898.0000000000002274
 30
0.0
  0
SEQEND
  5
F244
  8
0
  0
POLYLINE
  5
E683
  8
0
 66
     1
 10
0.0
 20
0.0
 30
0.0
 70
     1
  0
VERTEX
  5
F245
  8
0
 10
8413.0000000050567905
 20
870.0000000000002274
 30
0.0
  0
VERTEX
  5
F246
  8
0
 10
8353.0000000050567905
 20
870.0000000000002274
 30
0.0
  0
VERTEX
  5
F247
  8
0
 10
8353.0000000050567905
 20
900.0000000000001137
 30
0.0
  0
VERTEX
  5
F248
  8
0
 10
8413.0000000050567905
 20
900.0000000000001137
 30
0.0
  0
SEQEND
  5
F249
  8
0
  0
POLYLINE
  5
E684
  8
0
 66
     1
 10
0.0
 20
0.0
 30
0.0
 70
     1
  0
VERTEX
  5
F24A
  8
0
 10
8411.0000000050586095
 20
872.0000000000002274
 30
0.0
  0
VERTEX
  5
F24B
  8
0
 10
8355.0000000050567905
 20
872.0000000000002274
 30
0.0
  0
VERTEX
  5
F24C
  8
0
 10
8355.0000000050567905
 20
898.0000000000002274
 30
0.0
  0
VERTEX
  5
F24D
  8
0
 10
8411.0000000050586095
 20
898.0000000000002274
 30
0.0
  0
SEQEND
  5
F24E
  8
0
  0
DIMENSION
  5
E685
  8
0___30
  2
*D118
 10
10480.5
 20
630.0000000000005684
 30
0.0
 11
9415.25
 21
630.0000000000005684
 31
0.0
 70
     0
 13
8350.0
 23
900.0000000000001137
 33
0.0
 14
10480.5
 24
900.0000000000001137
 34
0.0
 50
180.0
1001
ACADANNOTATIVE
1000
AnnotativeData
1002
{
1070
     1
1070
     0
1002
}
1001
ACAD
1000
DSTYLE
1002
{
1070
   287
1070
     4
1070
    40
1040
30.0
1070
   279
1070
     1
1070
   289
1070
     3
1070
   174
1070
     0
1070
   175
1070
     0
1070
   172
1070
     1
1002
}
  0
INSERT
  5
E704
  8
0
  2
PLOT-ST1_P
 10
1049.9999999999920419
 20
7110.5000000050577
 30
0.0
  0
INSERT
  5
E729
  8
0
  2
PLOT-ST1_F
 10
3625.0
 20
4980.0
 30
0.0
  0
INSERT
  5
E796
  8
0
  2
PLOT-ST1_S
 10
8330.5
 20
4979.9999999999918145
 30
0.0
  0
INSERT
  5
E797
  8
0
  2
PLOT-ST1_P
 10
1049.9999999999920419
 20
3030.5000000050567905
 30
0.0
  0
INSERT
  5
E798
  8
0
  2
PLOT-ST1_P
 10
2124.9999999999940883
 20
3030.5000000050567905
 30
0.0
  0
INSERT
  5
E799
  8
0
  2
PLOT-ST1_F
 10
4700.0
 20
900.0000000000001137
 30
0.0
  0
INSERT
  5
E79A
  8
0
  2
PLOT-ST1_F
 10
5775.0
 20
900.0000000000001137
 30
0.0
  0
INSERT
  5
E79B
  8
0
  2
PLOT-ST1_S
 10
10480.5
 20
900.0000000000001137
 30
0.0
  0
POLYLINE
  5
E7C6
  8
HOJO
  6
HIDDEN
 66
     1
 10
0.0
 20
0.0
 30
0.0
 70
     1
  0
VERTEX
  5
F29C
  8
HOJO
  6
HIDDEN
 10
3475.0
 20
4830.0
 30
0.0
  0
VERTEX
  5
F29D
  8
HOJO
  6
HIDDEN
 10
4850.0
 20
4830.0
 30
0.0
  0
VERTEX
  5
F29E
  8
HOJO
  6
HIDDEN
 10
4850.0
 20
7415.0
 30
0.0
  0
VERTEX
  5
F29F
  8
HOJO
  6
HIDDEN
 10
3475.0
 20
7415.0
 30
0.0
  0
SEQEND
  5
F2A0
  8
HOJO
  6
HIDDEN
  0
POLYLINE
  5
E7C7
  8
HOJO
  6
HIDDEN
 66
     1
 10
0.0
 20
0.0
 30
0.0
 70
     1
  0
VERTEX
  5
F2A1
  8
HOJO
  6
HIDDEN
 10
3325.0
 20
4680.0
 30
0.0
  0
VERTEX
  5
F2A2
  8
HOJO
  6
HIDDEN
 10
5000.0
 20
4680.0
 30
0.0
  0
VERTEX
  5
F2A3
  8
HOJO
  6
HIDDEN
 10
5000.0
 20
7565.0
 30
0.0
  0
VERTEX
  5
F2A4
  8
HOJO
  6
HIDDEN
 10
3325.0
 20
7565.0
 30
0.0
  0
SEQEND
  5
F2A5
  8
HOJO
  6
HIDDEN
  0
POLYLINE
  5
E7C8
  8
HOJO
  6
HIDDEN
 66
     1
 10
0.0
 20
0.0
 30
0.0
 70
     1
  0
VERTEX
  5
F2A6
  8
HOJO
  6
HIDDEN
 10
3175.0
 20
4530.0
 30
0.0
  0
VERTEX
  5
F2A7
  8
HOJO
  6
HIDDEN
 10
5150.0
 20
4530.0
 30
0.0
  0
VERTEX
  5
F2A8
  8
HOJO
  6
HIDDEN
 10
5150.0
 20
7715.0
 30
0.0
  0
VERTEX
  5
F2A9
  8
HOJO
  6
HIDDEN
 10
3175.0
 20
7715.0
 30
0.0
  0
SEQEND
  5
F2AA
  8
HOJO
  6
HIDDEN
  0
POLYLINE
  5
E7C9
  8
HOJO
  6
HIDDEN
 66
     1
 10
0.0
 20
0.0
 30
0.0
 70
     1
  0
VERTEX
  5
F2AB
  8
HOJO
  6
HIDDEN
 10
3025.0
 20
4380.0
 30
0.0
  0
VERTEX
  5
F2AC
  8
HOJO
  6
HIDDEN
 10
5300.0
 20
4380.0
 30
0.0
  0
VERTEX
  5
F2AD
  8
HOJO
  6
HIDDEN
 10
5300.0
 20
7865.0
 30
0.0
  0
VERTEX
  5
F2AE
  8
HOJO
  6
HIDDEN
 10
3025.0
 20
7865.0
 30
0.0
  0
SEQEND
  5
F2AF
  8
HOJO
  6
HIDDEN
  0
POLYLINE
  5
E7CA
  8
HOJO
  6
HIDDEN
 66
     1
 10
0.0
 20
0.0
 30
0.0
 70
     1
  0
VERTEX
  5
F2B0
  8
HOJO
  6
HIDDEN
 10
2875.0
 20
4230.0
 30
0.0
  0
VERTEX
  5
F2B1
  8
HOJO
  6
HIDDEN
 10
5450.0
 20
4230.0
 30
0.0
  0
VERTEX
  5
F2B2
  8
HOJO
  6
HIDDEN
 10
5450.0
 20
8015.0
 30
0.0
  0
VERTEX
  5
F2B3
  8
HOJO
  6
HIDDEN
 10
2875.0
 20
8015.0
 30
0.0
  0
SEQEND
  5
F2B4
  8
HOJO
  6
HIDDEN
  0
POLYLINE
  5
E7CB
  8
HOJO
  6
HIDDEN
 66
     1
 10
0.0
 20
0.0
 30
0.0
 70
     1
  0
VERTEX
  5
F2B5
  8
HOJO
  6
HIDDEN
 10
8480.500000000001819
 20
4829.9999999999909051
 30
0.0
  0
VERTEX
  5
F2B6
  8
HOJO
  6
HIDDEN
 10
6050.0
 20
4830.0000000000009095
 30
0.0
  0
VERTEX
  5
F2B7
  8
HOJO
  6
HIDDEN
 10
6050.0
 20
7415.0
 30
0.0
  0
VERTEX
  5
F2B8
  8
HOJO
  6
HIDDEN
 10
8480.500000000001819
 20
7414.9999999999918145
 30
0.0
  0
SEQEND
  5
F2B9
  8
HOJO
  6
HIDDEN
  0
POLYLINE
  5
E7CC
  8
HOJO
  6
HIDDEN
 66
     1
 10
0.0
 20
0.0
 30
0.0
 70
     1
  0
VERTEX
  5
F2BA
  8
HOJO
  6
HIDDEN
 10
8630.500000000003638
 20
4679.9999999999909051
 30
0.0
  0
VERTEX
  5
F2BB
  8
HOJO
  6
HIDDEN
 10
5900.0
 20
4680.0000000000009095
 30
0.0
  0
VERTEX
  5
F2BC
  8
HOJO
  6
HIDDEN
 10
5900.0
 20
7565.000000000001819
 30
0.0
  0
VERTEX
  5
F2BD
  8
HOJO
  6
HIDDEN
 10
8630.500000000003638
 20
7564.9999999999899956
 30
0.0
  0
SEQEND
  5
F2BE
  8
HOJO
  6
HIDDEN
  0
POLYLINE
  5
E7CD
  8
HOJO
  6
HIDDEN
 66
     1
 10
0.0
 20
0.0
 30
0.0
 70
     1
  0
VERTEX
  5
F2BF
  8
HOJO
  6
HIDDEN
 10
8780.500000000001819
 20
4529.9999999999881766
 30
0.0
  0
VERTEX
  5
F2C0
  8
HOJO
  6
HIDDEN
 10
5750.0
 20
4530.0000000000009095
 30
0.0
  0
VERTEX
  5
F2C1
  8
HOJO
  6
HIDDEN
 10
5750.0
 20
7715.0000000000027285
 30
0.0
  0
VERTEX
  5
F2C2
  8
HOJO
  6
HIDDEN
 10
8780.500000000001819
 20
7714.9999999999899956
 30
0.0
  0
SEQEND
  5
F2C3
  8
HOJO
  6
HIDDEN
  0
POLYLINE
  5
E7CE
  8
HOJO
  6
HIDDEN
 66
     1
 10
0.0
 20
0.0
 30
0.0
 70
     1
  0
VERTEX
  5
F2C4
  8
HOJO
  6
HIDDEN
 10
8930.5
 20
4379.9999999999881766
 30
0.0
  0
VERTEX
  5
F2C5
  8
HOJO
  6
HIDDEN
 10
5600.0
 20
4380.0000000000009095
 30
0.0
  0
VERTEX
  5
F2C6
  8
HOJO
  6
HIDDEN
 10
5600.0
 20
7865.0000000000009095
 30
0.0
  0
VERTEX
  5
F2C7
  8
HOJO
  6
HIDDEN
 10
8930.5
 20
7864.9999999999872671
 30
0.0
  0
SEQEND
  5
F2C8
  8
HOJO
  6
HIDDEN
  0
POLYLINE
  5
E7CF
  8
HOJO
  6
HIDDEN
 66
     1
 10
0.0
 20
0.0
 30
0.0
 70
     1
  0
VERTEX
  5
F2C9
  8
HOJO
  6
HIDDEN
 10
9080.5
 20
4229.9999999999872671
 30
0.0
  0
VERTEX
  5
F2CA
  8
HOJO
  6
HIDDEN
 10
5450.0
 20
4230.0000000000027285
 30
0.0
  0
VERTEX
  5
F2CB
  8
HOJO
  6
HIDDEN
 10
5450.0
 20
8015.000000000003638
 30
0.0
  0
VERTEX
  5
F2CC
  8
HOJO
  6
HIDDEN
 10
9080.5
 20
8014.9999999999881766
 30
0.0
  0
SEQEND
  5
F2CD
  8
HOJO
  6
HIDDEN
  0
POLYLINE
  5
E7D0
  8
HOJO
  6
HIDDEN
 66
     1
 10
0.0
 20
0.0
 30
0.0
 70
     1
  0
VERTEX
  5
F2CE
  8
HOJO
  6
HIDDEN
 10
4550.0
 20
750.0000000000002274
 30
0.0
  0
VERTEX
  5
F2CF
  8
HOJO
  6
HIDDEN
 10
7000.0
 20
750.0000000000002274
 30
0.0
  0
VERTEX
  5
F2D0
  8
HOJO
  6
HIDDEN
 10
7000.0
 20
3335.0000000000009095
 30
0.0
  0
VERTEX
  5
F2D1
  8
HOJO
  6
HIDDEN
 10
4550.0
 20
3335.0000000000009095
 30
0.0
  0
SEQEND
  5
F2D2
  8
HOJO
  6
HIDDEN
  0
POLYLINE
  5
E7D1
  8
HOJO
  6
HIDDEN
 66
     1
 10
0.0
 20
0.0
 30
0.0
 70
     1
  0
VERTEX
  5
F2D3
  8
HOJO
  6
HIDDEN
 10
4400.0
 20
600.0000000000005684
 30
0.0
  0
VERTEX
  5
F2D4
  8
HOJO
  6
HIDDEN
 10
7150.0
 20
600.0000000000005684
 30
0.0
  0
VERTEX
  5
F2D5
  8
HOJO
  6
HIDDEN
 10
7150.0
 20
3485.0000000000009095
 30
0.0
  0
VERTEX
  5
F2D6
  8
HOJO
  6
HIDDEN
 10
4400.0
 20
3485.0000000000009095
 30
0.0
  0
SEQEND
  5
F2D7
  8
HOJO
  6
HIDDEN
  0
POLYLINE
  5
E7D2
  8
HOJO
  6
HIDDEN
 66
     1
 10
0.0
 20
0.0
 30
0.0
 70
     1
  0
VERTEX
  5
F2D8
  8
HOJO
  6
HIDDEN
 10
4250.0
 20
450.0000000000003979
 30
0.0
  0
VERTEX
  5
F2D9
  8
HOJO
  6
HIDDEN
 10
7300.0
 20
450.0000000000003979
 30
0.0
  0
VERTEX
  5
F2DA
  8
HOJO
  6
HIDDEN
 10
7300.0
 20
3635.0000000000009095
 30
0.0
  0
VERTEX
  5
F2DB
  8
HOJO
  6
HIDDEN
 10
4250.0
 20
3635.0000000000009095
 30
0.0
  0
SEQEND
  5
F2DC
  8
HOJO
  6
HIDDEN
  0
POLYLINE
  5
E7D3
  8
HOJO
  6
HIDDEN
 66
     1
 10
0.0
 20
0.0
 30
0.0
 70
     1
  0
VERTEX
  5
F2DD
  8
HOJO
  6
HIDDEN
 10
4100.0
 20
300.0000000000003979
 30
0.0
  0
VERTEX
  5
F2DE
  8
HOJO
  6
HIDDEN
 10
7450.0
 20
300.0000000000003979
 30
0.0
  0
VERTEX
  5
F2DF
  8
HOJO
  6
HIDDEN
 10
7450.0
 20
3785.0000000000009095
 30
0.0
  0
VERTEX
  5
F2E0
  8
HOJO
  6
HIDDEN
 10
4100.0
 20
3785.0000000000009095
 30
0.0
  0
SEQEND
  5
F2E1
  8
HOJO
  6
HIDDEN
  0
POLYLINE
  5
E7D4
  8
HOJO
  6
HIDDEN
 66
     1
 10
0.0
 20
0.0
 30
0.0
 70
     1
  0
VERTEX
  5
F2E2
  8
HOJO
  6
HIDDEN
 10
3950.0
 20
150.0000000000003979
 30
0.0
  0
VERTEX
  5
F2E3
  8
HOJO
  6
HIDDEN
 10
7600.0
 20
150.0000000000003979
 30
0.0
  0
VERTEX
  5
F2E4
  8
HOJO
  6
HIDDEN
 10
7600.0
 20
3935.000000000001819
 30
0.0
  0
VERTEX
  5
F2E5
  8
HOJO
  6
HIDDEN
 10
3950.0
 20
3935.0000000000009095
 30
0.0
  0
SEQEND
  5
F2E6
  8
HOJO
  6
HIDDEN
  0
POLYLINE
  5
E7D5
  8
HOJO
  6
HIDDEN
 66
     1
 10
0.0
 20
0.0
 30
0.0
 70
     1
  0
VERTEX
  5
F2E7
  8
HOJO
  6
HIDDEN
 10
10480.5
 20
900.0000000000001137
 30
0.0
  0
VERTEX
  5
F2E8
  8
HOJO
  6
HIDDEN
 10
8350.0
 20
900.0000000000087539
 30
0.0
  0
VERTEX
  5
F2E9
  8
HOJO
  6
HIDDEN
 10
8350.0
 20
3185.0000000000090949
 30
0.0
  0
VERTEX
  5
F2EA
  8
HOJO
  6
HIDDEN
 10
10480.5
 20
3185.0
 30
0.0
  0
SEQEND
  5
F2EB
  8
HOJO
  6
HIDDEN
  0
POLYLINE
  5
E7D6
  8
HOJO
  6
HIDDEN
 66
     1
 10
0.0
 20
0.0
 30
0.0
 70
     1
  0
VERTEX
  5
F2EC
  8
HOJO
  6
HIDDEN
 10
11230.5
 20
149.9999999999976978
 30
0.0
  0
VERTEX
  5
F2ED
  8
HOJO
  6
HIDDEN
 10
7600.0
 20
150.0000000000113118
 30
0.0
  0
VERTEX
  5
F2EE
  8
HOJO
  6
HIDDEN
 10
7600.0
 20
3935.0000000000118234
 30
0.0
  0
VERTEX
  5
F2EF
  8
HOJO
  6
HIDDEN
 10
11230.5
 20
3934.9999999999990905
 30
0.0
  0
SEQEND
  5
F2F0
  8
HOJO
  6
HIDDEN
  0
POLYLINE
  5
E7D7
  8
HOJO
  6
HIDDEN
 66
     1
 10
0.0
 20
0.0
 30
0.0
 70
     1
  0
VERTEX
  5
F2F1
  8
HOJO
  6
HIDDEN
 10
11080.5
 20
299.9999999999977263
 30
0.0
  0
VERTEX
  5
F2F2
  8
HOJO
  6
HIDDEN
 10
7750.0
 20
300.0000000000114824
 30
0.0
  0
VERTEX
  5
F2F3
  8
HOJO
  6
HIDDEN
 10
7750.0
 20
3785.0000000000131877
 30
0.0
  0
VERTEX
  5
F2F4
  8
HOJO
  6
HIDDEN
 10
11080.5
 20
3784.9999999999990905
 30
0.0
  0
SEQEND
  5
F2F5
  8
HOJO
  6
HIDDEN
  0
POLYLINE
  5
E7D8
  8
HOJO
  6
HIDDEN
 66
     1
 10
0.0
 20
0.0
 30
0.0
 70
     1
  0
VERTEX
  5
F2F6
  8
HOJO
  6
HIDDEN
 10
10930.5
 20
449.9999999999985221
 30
0.0
  0
VERTEX
  5
F2F7
  8
HOJO
  6
HIDDEN
 10
7900.0
 20
450.0000000000102887
 30
0.0
  0
VERTEX
  5
F2F8
  8
HOJO
  6
HIDDEN
 10
7900.0
 20
3635.0000000000109139
 30
0.0
  0
VERTEX
  5
F2F9
  8
HOJO
  6
HIDDEN
 10
10930.5
 20
3635.0
 30
0.0
  0
SEQEND
  5
F2FA
  8
HOJO
  6
HIDDEN
  0
POLYLINE
  5
E7D9
  8
HOJO
  6
HIDDEN
 66
     1
 10
0.0
 20
0.0
 30
0.0
 70
     1
  0
VERTEX
  5
F2FB
  8
HOJO
  6
HIDDEN
 10
10780.5
 20
599.9999999999994316
 30
0.0
  0
VERTEX
  5
F2FC
  8
HOJO
  6
HIDDEN
 10
8050.0
 20
600.0000000000095497
 30
0.0
  0
VERTEX
  5
F2FD
  8
HOJO
  6
HIDDEN
 10
8050.0
 20
3485.0000000000109139
 30
0.0
  0
VERTEX
  5
F2FE
  8
HOJO
  6
HIDDEN
 10
10780.5
 20
3484.9999999999990905
 30
0.0
  0
SEQEND
  5
F2FF
  8
HOJO
  6
HIDDEN
  0
POLYLINE
  5
E7DA
  8
HOJO
  6
HIDDEN
 66
     1
 10
0.0
 20
0.0
 30
0.0
 70
     1
  0
VERTEX
  5
F300
  8
HOJO
  6
HIDDEN
 10
10630.5
 20
749.9999999999994316
 30
0.0
  0
VERTEX
  5
F301
  8
HOJO
  6
HIDDEN
 10
8200.0
 20
750.000000000009436
 30
0.0
  0
VERTEX
  5
F302
  8
HOJO
  6
HIDDEN
 10
8200.0
 20
3335.0000000000109139
 30
0.0
  0
VERTEX
  5
F303
  8
HOJO
  6
HIDDEN
 10
10630.5
 20
3334.9999999999990905
 30
0.0
  0
SEQEND
  5
F304
  8
HOJO
  6
HIDDEN
  0
POLYLINE
  5
E870
  8
HOJO
  6
HIDDEN
 66
     1
 10
0.0
 20
0.0
 30
0.0
 70
     1
  0
VERTEX
  5
F305
  8
HOJO
  6
HIDDEN
 10
3950.0
 20
150.0000000000003979
 30
0.0
  0
VERTEX
  5
F306
  8
HOJO
  6
HIDDEN
 10
7600.0
 20
150.0000000000003979
 30
0.0
  0
VERTEX
  5
F307
  8
HOJO
  6
HIDDEN
 10
7600.0
 20
3935.0000000000009095
 30
0.0
  0
VERTEX
  5
F308
  8
HOJO
  6
HIDDEN
 10
3950.0000000000009095
 20
3935.0000000000009095
 30
0.0
  0
SEQEND
  5
F309
  8
HOJO
  6
HIDDEN
  0
INSERT
  5
E87C
  8
0
  6
CONTINUOUS
  2
*U89
 10
0.0
 20
0.0
 30
0.0
1001
GRADIENTCOLOR1ACI
1070
     5
1001
GRADIENTCOLOR2ACI
1070
     2
1001
ACAD
1002
{
1000
R14_HATCH_DATA
1000
E87C
1011
1.0
1021
0.0
1031
0.0
1021
0.0
1031
0.0
1011
0.0
1021
0.0
1031
0.0
1021
1.0
1031
0.0
1011
0.0
1021
0.0
1031
0.0
1021
0.0
1031
1.0
1040
0.0
1010
0.0
1020
0.0
1030
1.0
1000
SOLID
1070
     1
1070
     0
1071
        1
1071
        7
1070
     0
1070
     1
1071
        3
1040
8320.0
1040
2042.5000000000100044
1040
8200.0
1040
2111.7820323027649465
1040
8200.0
1040
1973.2179676972539255
1071
        0
1070
     1
1070
     1
1040
0.6868630920821949
1071
        1
1040
8237.7296092787019006
1040
2037.3840039750919004
1040
0.0
1002
}
  0
POLYLINE
  5
E87D
  8
0
 66
     1
 10
0.0
 20
0.0
 30
0.0
 70
     1
  0
VERTEX
  5
F30A
  8
0
 10
8320.0
 20
2042.5000000000100044
 30
0.0
  0
VERTEX
  5
F30B
  8
0
 10
8200.0
 20
2111.7820323027649465
 30
0.0
  0
VERTEX
  5
F30C
  8
0
 10
8200.0
 20
1973.2179676972539255
 30
0.0
  0
VERTEX
  5
F30D
  8
0
 10
8320.0
 20
2042.5000000000100044
 30
0.0
  0
SEQEND
  5
F30E
  8
0
  0
INSERT
  5
E87E
  8
0
  6
CONTINUOUS
  2
*U90
 10
0.0
 20
0.0
 30
0.0
1001
GRADIENTCOLOR1ACI
1070
     5
1001
GRADIENTCOLOR2ACI
1070
     2
1001
ACAD
1002
{
1000
R14_HATCH_DATA
1000
E87E
1011
1.0
1021
0.0
1031
0.0
1021
0.0
1031
0.0
1011
0.0
1021
0.0
1031
0.0
1021
1.0
1031
0.0
1011
0.0
1021
0.0
1031
0.0
1021
0.0
1031
1.0
1040
0.0
1010
0.0
1020
0.0
1030
1.0
1000
SOLID
1070
     1
1070
     0
1071
        1
1071
        7
1070
     0
1070
     1
1071
        3
1040
6170.0
1040
6122.5000000000009095
1040
6050.0
1040
6191.7820323027553968
1040
6050.0
1040
6053.2179676972446032
1071
        0
1070
     1
1070
     1
1040
0.6868630920821949
1071
        1
1040
6087.7296092787046291
1040
6117.3840039750812139
1040
0.0
1002
}
  0
POLYLINE
  5
E87F
  8
0
 66
     1
 10
0.0
 20
0.0
 30
0.0
 70
     1
  0
VERTEX
  5
F30F
  8
0
 10
6170.0
 20
6122.5000000000009095
 30
0.0
  0
VERTEX
  5
F310
  8
0
 10
6050.0
 20
6191.7820323027553968
 30
0.0
  0
VERTEX
  5
F311
  8
0
 10
6050.0
 20
6053.2179676972446032
 30
0.0
  0
VERTEX
  5
F312
  8
0
 10
6170.0
 20
6122.5000000000009095
 30
0.0
  0
SEQEND
  5
F313
  8
0
  0
VIEWPORT
  5
3D6
 67
     1
  8
0
 10
210.000000000674703
 20
148.5000030513120066
 30
0.0
 40
592.9402079107160262
 41
309.0641267410621253
 68
     1
 69
     1
1001
ACAD
1000
MVIEW
1002
{
1070
    16
1010
0.0
1020
0.0
1030
0.0
1010
0.0
1020
0.0
1030
1.0
1040
0.0
1040
309.0641267410621253
1040
210.000000000674703
1040
148.5000030513120066
1040
50.0
1040
0.0
1040
0.0
1070
     0
1070
  1000
1070
     1
1070
     1
1070
     0
1070
     0
1070
     0
1070
     0
1040
0.0
1040
0.0
1040
0.0
1040
10.0
1040
10.0
1040
10.0
1040
10.0
1070
     0
1002
{
1002
}
1002
}
  0
VIEWPORT
  5
1EC8
 67
     1
  8
HOJO
 10
209.999997974986087
 20
156.0000016216883125
 30
0.0
 40
404.9999999999997158
 41
272.0
 68
     2
 69
     2
1001
ACAD
1000
MVIEW
1002
{
1070
    16
1010
4050.0
1020
-2720.0
1030
0.0
1010
0.0
1020
0.0
1030
11615.7538266550400294
1040
0.0
1040
8160.0
1040
2024.9999999999970441
1040
6800.0
1040
50.0
1040
0.0
1040
0.0
1070
     0
1070
  1000
1070
     1
1070
     3
1070
     0
1070
     0
1070
     0
1070
     0
1040
0.0
1040
0.0
1040
0.0
1040
10.0
1040
10.0
1040
10.0
1040
10.0
1070
     0
1002
{
1002
}
1002
}
  0
TEXT
  5
1ECE
 67
     1
  8
041_図枠文字
 10
240.1516484044356901
 20
13.2500016216882806
 30
0.0
 40
3.0
  1
30(A3)
  7
MS_ゴシック
 11
240.1516484044356901
 21
16.2500016216882806
 31
0.0
 73
     3
  0
TEXT
  5
1ECF
 67
     1
  8
041_図枠文字
 10
231.874997974986087
 20
7.5000016216882841
 30
0.0
 40
2.5
  1
2022/9/6
  7
MS_ゴシック
 72
     4
 11
241.249997974986087
 21
8.7500016216882841
 31
0.0
  0
TEXT
  5
1ED1
 67
     1
  8
041_図枠文字
 10
386.1666646416529147
 20
9.2500016216882806
 30
0.0
 40
4.0
  1
-
  7
MS_ゴシック
 72
     4
 11
387.4999979749861723
 21
11.2500016216882806
 31
0.0
  0
INSERT
  5
2383
 67
     1
  8
0
  2
A3枠
 10
-0.0000020250138277
 20
0.0000016216882841
 30
0.0
  0
TEXT
  5
616A
 67
     1
  8
041_図枠文字
 10
299.916664641652801
 20
7.5000016216882841
 30
0.0
 40
2.5
  1
【プロット図】
  7
MS_ゴシック
 72
     1
 11
309.9999979749861723
 21
8.7500016216882841
 31
0.0
 73
     2
  0
LINE
  5
61AE
 67
     1
  8
HOJO
 10
257.4999979749861154
 20
12.5000016216882806
 30
0.0
 11
362.4999979749861723
 21
5.0000016216882841
 31
0.0
  0
ENDSEC
  0
EOF
